↑↓torrent.by
Поиск
Логин:  Регистрация
Пароль:

Всё ОК [S01] (2024) WEBRip 1080p

download Скачать торрент-файл   magnet Магнитная ссылка Размер: 8.68 GB Добавлен: 2024-04-26 05:00
Пиры будут получены из сети DHT
Последний сидер был замечен 2024-05-07 18:19
Информация о фильме Название: Всё ОК Год выхода: 2024 Жанр: Драма, комедия Режиссёр: Андрей Элинсон В ролях: Фёдор Федотов, Анна Осипова, Алиса Руденко, Анна Слю, Софья Гершевич, Евгения Добровольская, Алена Апина, Владислав Ценёв, DAVA, Светлана Смирнова-Кацагаджиева, Алесь Снопковский, Диана Арбенина, Мария Николаева, Тимофей Тимков, Илья Дель, Дарья Вершинина, Ксения Плюснина, Маргарита Бычкова, Игорь Головин, Сергей Барковский, Леонид Зябкин, Лев Пархалин, Полина Бахаревская, Константин Мурзенко, Александр Золотовицкий, Олег Усенко, Джулиано ди Капуа, Агриппина Стеклова, Олеся Соколова, Артём Гайдук, Николай Горшков, Оксана Базилевич, Сергей Гамов, Роман Вебер, Васант Балан, Олег Бахаревский, Василий Реутов, Олег Гордиевский, Александр Цыбульский, Никита Брусов, Гоша Торвич, Эдвард Опп, Денис Котов, Екатерина Шмакова, Александра Сыдорук, Мария Цветкова-Овсянникова, Александр Мороз, Илья Власов, Ника Ивашкевич, Наталья Лыжина, Максим Саетгараев, Надежда Пигина, Ася Гордиевская, Эврика Аллавердонц, Нана Муштакова О фильме: Петербургский гид-переводчик Илья привык прятать чувства за цитатами и остротами и открывать душу только воображаемым персонажам из мира музеев. Всё меняется, когда после смерти матери ему приходится взять на себя заботу о младших сёстрах. И теперь интроверту, привыкшему к холостяцкой жизни, придётся пересмотреть свои отношения с окружающим миром, вновь пережить детские обиды, влюбиться и наконец повзрослеть. Страна: Россия Студия: Институт развития интернета, НМГ Студия, Продакшн 360, Видеопрокат Продолжительность: 13 х ~ 00:24:00 Язык: Русский Премьера в Росcии: 20 марта 2024 года Цифровой релиз: 20 марта 2024 года Примечание: Без рекламы Возраст: 18+ Файл Формат: MKV Качество: WEBRip 1080p Видео: MPEG-4 AVC, ~ 4000 Кбит/с, 1920x1080 Звук: AC3, 2 ch, 192 Кбит/с Субтитры: Отсутствуют Семпл
[+] Скриншоты
[+] MIОбщее Уникальный идентификатор : 115563275581649987604535539909369941976 (0x56F0AD62F8679512657676EE80DA4FD8) Полное имя : C:UsersAdminDesktopVsyo.OK.S01.2024.WEB-DL.1080pVsyo.OK.S01.E01.2024.WEB-DL.1080p.mkv Формат : Matroska Версия формата : Version 4 Размер файла : 712 Мбайт Продолжительность : 23 м. 50 с. Режим общего битрейта : Постоянный Общий поток : 4 174 Кбит/сек Название фильма : Vsyo.OK.S01.E01.2024.WEB-DL.1080p Дата кодирования : UTC 2024-03-20 13:03:40 Программа кодирования : mkvmerge v83.0 ('Circle Of Friends') 64-bit Библиотека кодирования : libebml v1.4.5 + libmatroska v1.7.1 Attachments : poster.jpg Видео Идентификатор : 1 Формат : AVC Формат/Информация : Advanced Video Codec Профиль формата : High@L4 Настройки формата : CABAC / 3 Ref Frames Параметр CABAC формата : Да Параметр RefFrames формата : 3 кадра Идентификатор кодека : V_MPEG4/ISO/AVC Продолжительность : 23 м. 50 с. Вид битрейта : Постоянный Битрейт : 4 000 Кбит/сек Ширина : 1 920 пикселей Высота : 1 080 пикселей Соотношение сторон : 16:9 Режим частоты кадров : Постоянный Частота кадров : 25,000 кадров/сек Цветовое пространство : YUV Субдискретизация насыщенности : 4:2:0 Битовая глубина : 8 бит Тип развёртки : Прогрессивная Бит/(Пиксели*Кадры) : 0.077 Размер потока : 677 Мбайт (95%) Default : Да Forced : Нет Аудио Идентификатор : 2 Формат : AC-3 Формат/Информация : Audio Coding 3 Коммерческое название : Dolby Digital Идентификатор кодека : A_AC3 Продолжительность : 23 м. 50 с. Вид битрейта : Постоянный Битрейт : 192 Кбит/сек Каналы : 2 канала Channel layout : L R Частота : 48,0 КГц Частота кадров : 31,250 кадров/сек (1536 SPF) Метод сжатия : С потерями Размер потока : 32,7 Мбайт (5%) Заголовок : Язык : Russian Service kind : Complete Main Default : Да Forced : Нет

Всего файлов в раздаче: 13 
Vsyo.OK.S01.E01.2024.WEB-DL.1080p.mkv711.98 MB
Vsyo.OK.S01.E02.2024.WEB-DL.1080p.mkv701.56 MB
Vsyo.OK.S01.E03.2024.WEB-DL.1080p.mkv654.87 MB
Vsyo.OK.S01.E04.2024.WEB-DL.1080p.mkv677.95 MB
Vsyo.OK.S01.E05.2024.WEB-DL.1080p.mkv705.81 MB
Vsyo.OK.S01.E06.2024.WEB-DL.1080p.mkv658.11 MB
Vsyo.OK.S01.E07.2024.WEB-DL.1080p.mkv660.10 MB
Vsyo.OK.S01.E08.2024.WEB-DL.1080p.mkv657.71 MB
Vsyo.OK.S01.E09.2024.WEB-DL.1080p.mkv677.67 MB
Vsyo.OK.S01.E10.2024.WEB-DL.1080p.mkv658.54 MB
Показать все файлы

Похожие раздачи по запросу - Всё
2024-05-17 magnet Все любят Жанну / Tout le monde aime Jeanne / Everybody Loves Jeanne (2022) BDRip 720p от DoMiNo & селезень | D 3.84 GB ↑ 0 ↓ 0
2024-04-26 magnet Леонид Агутин - Всё не зря (2024) FLAC 356.37 MB ↑ 0 ↓ 0
2024-04-26 magnet Всё ОК [S01] (2024) WEBRip-AVC от Generalfilm | КПК 1.32 GB ↑ 0 ↓ 0
2024-04-26 magnet Всё ОК [S01] (2024) WEBRip 3.85 GB ↑ 0 ↓ 0
2024-04-24 magnet Всё ОК [S01] (2024) WEBRip-AVC от Files-x 3.73 GB ↑ 0 ↓ 0
2024-04-24 magnet Всё ОК [S01] (2024) WEBRip 720p от ExKinoRay 5.55 GB ↑ 0 ↓ 0
2024-04-21 magnet Детектив на все руки. Задача со звёздочкой [S03] (2023) WEB-DLRip от Generalfilm | КПК 681.49 MB ↑ 0 ↓ 0

Кто качает (только для создателя раздачи и модераторов): Локальные пиры отсутствуют

Комментарии


Зарегистрируйтесь чтобы добавить комментарий
Торрент клиент
byTorrent - программа для загрузки торрент-файлов.

Скачать byTorrent.exe (1,5 МБ)

Скачать byTorrent.zip (0,6 МБ)

Поддержи torrent.by
российских рублей
(300 российских рублей это 4$)

Обратная связь rss

End game ©