↑↓torrent.by
Поиск
Логин:  Регистрация
Пароль:

Дом у дороги / Road House (2024) WEB-DL 1080p | D | Flarrow Films

download Скачать торрент-файл   magnet Магнитная ссылка Размер: 2.61 GB Добавлен: 2024-04-26 05:00
Пиры будут получены из сети DHT
Последний сидер был замечен 2024-05-06 15:11
Информация о фильме Название: Дом у дороги Оригинальное название: Road House Год выхода: 2024 Жанр: боевик, драма, криминал Режиссер: Даг Лайман В ролях: Джейк Джилленхол, Даниэла Мелшиор, Билли Магнуссен, Конор Макгрегор, Джессика Уильямс, Жоакин де Алмейда, Б.К. Кэннон, Лукас Гейдж, Дж.Д. Пардо, Ханна Лав Ланье, Трэвис Ван Винкл, Post Malone О фильме: Бывший боец UFC Элвуд Далтон переживает не лучшие времена. Он живёт в машине и зарабатывает участием в подпольных боях без правил. Владелица бара «Дом у дороги», который расположен во Флорида-Кис, предлагает Далтону работу вышибалы, поскольку в заведении стабильно устраивают погромы члены местной банды. Страна: США Продолжительность: 02:03:24 Перевод: Дублированный (неофициальный) | Flarrow Films Роли озвучивали: Евгений Рубцов, Алексей Розин, Ингрид Олеринская, Ислам Ганджаев, Владимир Ерёмин, Глеб Гаврилов, Марина Волкова, Анастасия Портная, Егор Васильев, Владимир Паляница, Иван Породнов, Анастасия Филимонова, Анатолий Нокс, Аркадий Зяблов, Сабина Мусалимова, Артем Затиев, Полина Щербакова, Андрей Маслов, Виталий Кашеваров, Ахилл Намазов, Семён Евсиков, Семён Алёшин, Александра Бурьянова Файл Формат:MKV Кодек: MPEG-4 AVC Качество: WEB-DL 1080p Видео: 1920х1080, ~ 2 387 kb/s, 23.976, 8 bits Аудио: AC-3, 640 kb/s, 6 channels, 48.0 kHz Субтитры: Русские (отключаемые UTF-8)
[+] MediaInfo General Unique ID : 66871492660342166723410369507775624285 (0x324EFB23BC7D20B10001FA68F2CA345D) Complete name : C:Flarrow FilmsRoad.House.2024.WEB-DL.1080p.D.Flarrow.Films.mkv Format : Matroska Format version : Version 4 File size : 2.61 GiB Duration : 2 h 3 min Overall bit rate : 3 029 kb/s Encoded date : UTC 2024-04-25 14:58:00 Writing application : mkvmerge v45.0.0 ('Heaven in Pennies') 64-bit Writing library : libebml v1.3.10 + libmatroska v1.5.2 Video ID : 1 Format : AVC Format/Info : Advanced Video Codec Format profile : High@L4 Format settings : CABAC / 4 Ref Frames Format settings, CABAC : Yes Format settings, Reference : 4 frames Codec ID : V_MPEG4/ISO/AVC Duration : 2 h 3 min Bit rate : 2 387 kb/s Width : 1 920 pixels Height : 1 080 pixels Display aspect ratio : 16:9 Frame rate mode : Constant Frame rate : 23.976 (24000/1001) FPS Color space : YUV Chroma subsampling : 4:2:0 Bit depth : 8 bits Scan type : Progressive Bits/(Pixel*Frame) : 0.048 Stream size : 2.06 GiB (79%) Language : Hindi Default : Yes Forced : No Color range : Limited Color primaries : BT.709 Transfer characteristics : BT.709 Matrix coefficients : BT.709 Audio ID : 2 Format : AC-3 Format/Info : Audio Coding 3 Commercial name : Dolby Digital Codec ID : A_AC3 Duration : 2 h 3 min Bit rate mode : Constant Bit rate : 640 kb/s Channel(s) : 6 channels Channel layout : L R C LFE Ls Rs Sampling rate : 48.0 kHz Frame rate : 31.250 FPS (1536 SPF) Compression mode : Lossy Stream size : 565 MiB (21%) Service kind : Complete Main Default : Yes Forced : No Text ID : 3 Format : UTF-8 Codec ID : S_TEXT/UTF8 Codec ID/Info : UTF-8 Plain Text Duration : 1 h 53 min Bit rate : 83 b/s Frame rate : 0.295 FPS Count of elements : 2014 Stream size : 69.7 KiB (0%) Default : Yes Forced : No
[+] Скриншоты
Релиз от: Flarrow Films Примечание: Релиз без рекламы. Присутствует ненормативная лексика

Всего файлов в раздаче: 1 
Road.House.2024.WEB-DL.1080p.D.Flarrow.Films.mkv2.61 GB

Похожие раздачи по запросу - Дом
2024-05-17 magnet Дом на продажу / For Sale (2024) WEB-DLRip-AVC | P | TVShows 1.74 GB ↑ 0 ↓ 0
2024-05-13 magnet Дом на продажу / For Sale (2024) WEB-DLRip от New-Team | P | TVShows 1.46 GB ↑ 0 ↓ 0
2024-05-13 magnet Дом на продажу / For Sale (2024) WEB-DL 1080p от New-Team | P | TVShows 5.71 GB ↑ 0 ↓ 1
2024-05-07 magnet Дом из песка и тумана / House of Sand and Fog (2003) WEB-DLRip-AVC от DoMiNo | D 745.42 MB ↑ 0 ↓ 0
2024-04-29 magnet Дом у дороги / Road House (2024) WEB-DLRip 1080p от ExKinoRay | D, P, P2, A 13.52 GB ↑ 0 ↓ 0
2024-04-29 magnet Дом у дороги / Road House (2024) WEB-DLRip 720p от DoMiNo & селезень | D | Red Head Sound, Flarrow Films, HDRezka Studio 5.05 GB ↑ 0 ↓ 0
2024-04-29 magnet Дом у дороги / Road House (2024) WEB-DL 2160р от Scarabey | 4K | HDR10+ | D | Red Head Sound 17.92 GB ↑ 0 ↓ 0

Кто качает (только для создателя раздачи и модераторов): Локальные пиры отсутствуют

Комментарии


Зарегистрируйтесь чтобы добавить комментарий
Торрент клиент
byTorrent - программа для загрузки торрент-файлов.

Скачать byTorrent.exe (1,5 МБ)

Скачать byTorrent.zip (0,6 МБ)

Поддержи torrent.by
российских рублей
(300 российских рублей это 4$)

Обратная связь rss

End game ©