↑↓torrent.by
Поиск
Логин:  Регистрация
Пароль:

Ненормальный (2024) WEB-DLRip

download Скачать торрент-файл   magnet Магнитная ссылка Размер: 1.46 GB Добавлен: 2024-04-26 05:00
Пиры будут получены из сети DHT
Последний сидер был замечен 2024-05-19 10:55
Информация о фильме Название: Ненормальный Год выхода: 2024 Жанр: Драма, комедия Режиссер: Илья Маланин В ролях: Александр Яценко, Наталья Кудряшова, Елисей Свеженцев, Илларион Маров, Сюй Шиюэ, Надежда Маркина, Денис Давыдов, Дмитрий Жиров О фильме: 8-летний Коля не такой как все. Мама мальчика Татьяна уже не верит, что врожденная болезнь отступит, и ребенок когда-нибудь станет «нормальным». Но ее новый знакомый Юрий твердо намерен поставить Колю на ноги с помощью своей уникальной системы гимнастики. А когда во время занятий случайно выясняется, что у мальчика талант к музыке, обучение игре на фортепиано становится еще одним этапом на пути к выздоровлению. Впереди у Коли — престижный конкурс пианистов в Китае, первое свидание и масса препятствий, преодолеть которые ему помогут целительная сила музыки и отцовской любви. Страна: Россия Студия: Централ Партнершип, Кинослово Продолжительность: 01:42:54 Перевод: Не требуется Файл Формат: AVI Качество: WEB-DLRip Видео: 720x304 (2.35:1), 24.000 fps, XviD build 73, ~1632 kbps Аудио: Russian: 48 kHz, AC3, 3/2 (L,C,R,l,r) + LFE ch, ~384 kbps Субтитры: Отсутствуют
[+] Скриншоты
[+] Инфо-файлФормат : AVI Формат/Информация : Audio Video Interleave Настройки формата : BitmapInfoHeader / WaveFormatEx Размер файла : 1,46 Гбайт Продолжительность : 1 ч. 42 м. Общий поток : 2 026 Кбит/сек Частота кадров : 24,000 кадра/сек Название фильма : Ненормальный_2024_WEB-DLRip Программа кодирования : VirtualDubMod 1.5.10.3 | (build 2550/release) Авторское право : порошков Видео Идентификатор : 0 Формат : MPEG-4 Visual Профиль формата : Advanced Simple@L5 Настройки формата : BVOP1 / Custom Matrix Параметр BVOP формата : 1 Параметр QPel формата : Нет Параметр GMC формата : Без точки перехода Параметр матрицы формата : Выборочная Идентификатор кодека : XVID Идентификатор кодека/Подсказка : XviD Продолжительность : 1 ч. 42 м. Битрейт : 1 632 Кбит/сек Ширина : 720 пикселей Высота : 304 пикселя Соотношение сторон : 2,35:1 Частота кадров : 24,000 кадра/сек Цветовое пространство : YUV Субдискретизация насыщенности : 4:2:0 Битовая глубина : 8 бит Тип развёртки : Прогрессивная Метод сжатия : С потерями Бит/(Пиксели*Кадры) : 0.311 Размер потока : 1,17 Гбайт (81%) Библиотека кодирования : XviD 73 Аудио Идентификатор : 1 Формат : AC-3 Формат/Информация : Audio Coding 3 Коммерческое название : Dolby Digital Идентификатор кодека : 2000 Продолжительность : 1 ч. 42 м. Вид битрейта : Постоянный Битрейт : 384 Кбит/сек Каналы : 6 каналов Channel layout : L R C LFE Ls Rs Частота : 48,0 КГц Частота кадров : 31,250 кадров/сек (1536 SPF) Метод сжатия : С потерями Размер потока : 283 Мбайт (19%) Выравнивание : Разделение по промежуткам Продолжительность промежутка : 42 мс. (1,00 видеокадр) Время предзагрузки промежутка : 500 мс. Service kind : Complete Main

Всего файлов в раздаче: 1 
Ненормальный_2024_WEB-DLRip.avi1.46 GB

Похожие раздачи по запросу - Ненормальный
2024-04-30 magnet Ненормальный (2024) WEB-DLRip-AVC от ExKinoRay 745.77 MB ↑ 0 ↓ 0
2024-04-29 magnet Ненормальный (2024) WEB-DLRip-AVC от DoMiNo & селезень 1.24 GB ↑ 0 ↓ 0
2024-04-27 magnet Ненормальный (2024) WEB-DLRip от Generalfilm | КПК 390.14 MB ↑ 0 ↓ 0
2024-04-25 magnet Ненормальный (2024) WEB-DL 720p 2.21 GB ↑ 0 ↓ 0
2024-04-25 magnet Ненормальный (2024) WEB-DL 1080p 3.95 GB ↑ 0 ↓ 0

Комментарии


Зарегистрируйтесь чтобы добавить комментарий
Торрент клиент
byTorrent - программа для загрузки торрент-файлов.

Скачать byTorrent.exe (1,5 МБ)

Скачать byTorrent.zip (0,6 МБ)

Поддержи torrent.by
российских рублей
(300 российских рублей это 4$)

Обратная связь rss

End game ©