↑↓torrent.by
Поиск
Логин:  Регистрация
Пароль:

Чокнутые / Whacked! (2002) DVDRemux | P2

download Скачать торрент-файл   magnet Магнитная ссылка Размер: 3.60 GB Добавлен: 2024-04-26 11:00
Пиры будут получены из сети DHT
Последний сидер был замечен 2024-04-26 11:00
Информация о фильме Название: Чокнутые Оригинальное название: Whacked! Год выхода: 2002 Жанр: боевик, комедия Режиссер: Джеймс Брюс В ролях: Патрик Малдун, Пол Сэмпсон, Кармен Электра, Джадж Райнхолд, Джозеф Андерсон, Линден Эшби О фильме: Два брата работают киллерами - один на мафию, другой на ЦРУ. А потом оба начинают работать рука об руку - чтобы защитить компьютерного хакера, единственного свидетеля (хоть и виртуального) в деле государственной важности. Страна: США Продолжительность: 01:26:54 Перевод: Профессиональный (двухголосый, закадровый) Файл Формат: MKV Качество: DVDRemux Видео: MPEG2, 720x576@1024x576, 25 fps, ~5349 kbps Аудио 1 AC3, 2 ch, 192 Kbps - Русский Аудио 2 AC3, 2 ch, 384 Kbps - Английский Субтитры: нет
[+] MediaInfoGeneral Unique ID : 285465851701099748813210042870433585894 (0xD6C2B922EBFF729086D7E9EB16E01AE6) Complete name : D:Whacked! (2002).mkv Format : Matroska Format version : Version 4 File size : 3.60 GiB Duration : 1 h 26 min Overall bit rate mode : Variable Overall bit rate : 5 928 kb/s Encoded date : UTC 2024-04-25 06:48:37 Writing application : mkvmerge v65.0.0.1 ('Too Much') 32-bit Writing library : libebml v1.4.2 + libmatroska v1.6.4 Video ID : 1 Format : MPEG Video Format version : Version 2 Format profile : Main@Main Format settings : CustomMatrix / BVOP Format settings, BVOP : Yes Format settings, Matrix : Custom Format settings, GOP : M=3, N=12 Format settings, picture st : Frame Codec ID : V_MPEG2 Codec ID/Info : MPEG 1 or 2 Video Duration : 1 h 26 min Bit rate mode : Variable Bit rate : 5 349 kb/s Maximum bit rate : 9 416 kb/s Width : 720 pixels Height : 576 pixels Display aspect ratio : 16:9 Frame rate mode : Constant Frame rate : 25.000 FPS Standard : PAL Color space : YUV Chroma subsampling : 4:2:0 Bit depth : 8 bits Scan type : Interlaced Scan order : Top Field First Compression mode : Lossy Bits/(Pixel*Frame) : 0.516 Time code of first frame : 01:00:00:00 Time code source : Group of pictures header GOP, Open/Closed : Closed Stream size : 3.25 GiB (90%) Language : English Default : Yes Forced : No Audio #1 ID : 2 Format : AC-3 Format/Info : Audio Coding 3 Commercial name : Dolby Digital Codec ID : A_AC3 Duration : 1 h 26 min Bit rate mode : Constant Bit rate : 192 kb/s Channel(s) : 2 channels Channel layout : L R Sampling rate : 48.0 kHz Frame rate : 31.250 FPS (1536 SPF) Compression mode : Lossy Stream size : 119 MiB (3%) Title : DVO Language : Russian Service kind : Complete Main Default : Yes Forced : No Audio #2 ID : 3 Format : AC-3 Format/Info : Audio Coding 3 Commercial name : Dolby Digital Codec ID : A_AC3 Duration : 1 h 26 min Bit rate mode : Constant Bit rate : 384 kb/s Channel(s) : 2 channels Channel layout : L R Sampling rate : 48.0 kHz Frame rate : 31.250 FPS (1536 SPF) Compression mode : Lossy Stream size : 239 MiB (6%) Language : English Service kind : Complete Main Default : No Forced : No Menu 00:00:00.000 : en:Chapter 01 00:06:40.800 : en:Chapter 02 00:13:17.240 : en:Chapter 03 00:24:24.600 : en:Chapter 04 00:31:32.880 : en:Chapter 05 00:38:51.600 : en:Chapter 06 00:45:58.840 : en:Chapter 07 00:52:46.000 : en:Chapter 08 00:59:10.200 : en:Chapter 09 01:04:25.000 : en:Chapter 10 01:11:34.680 : en:Chapter 11 01:22:32.040 : en:Chapter 12
[+] Скриншоты

Всего файлов в раздаче: 1 
Whacked! (2002).mkv3.60 GB

Комментарии


Зарегистрируйтесь чтобы добавить комментарий
Торрент клиент
byTorrent - программа для загрузки торрент-файлов.

Скачать byTorrent.exe (1,5 МБ)

Скачать byTorrent.zip (0,6 МБ)

Поддержи torrent.by
российских рублей
(300 российских рублей это 4$)

Обратная связь rss

End game ©