↑↓torrent.by
Поиск
Логин:  Регистрация
Пароль:

Pet Shop Boys - Nonetheless [24-bit Hi-Res] (2024) FLAC

download Скачать торрент-файл   magnet Магнитная ссылка Размер: 555.44 MB Добавлен: 2024-04-26 11:00
Пиры будут получены из сети DHT
Последний сидер был замечен 2024-05-12 21:02
Название: Nonetheless Исполнитель: Pet Shop Boys Год: 2024 Жанр: Electronic, Pop Страна: United Kingdom Продолжительность: 00:43:53 Формат/Кодек: FLAC Тип рипа: Tracks Битрейт аудио: Lossless Разрядность: 24 Bit/44.1 kHz Носитель: WEB HDTracks
[+] Трек-лист 01. Loneliness (5:37) 02. Feel (5:02) 03. Why am I dancing? (3:33) 04. New London boy (4:53) 05. Dancing star (3:02) 06. A new bohemia (4:01) 07. The schlager hit parade (3:29) 08. The secret of happiness (5:25) 09. Bullet for Narcissus (3:51) 10. Love is the law (5:00)
[+] DRM foobar2000 1.5.5 / Замер динамического диапазона (DR) 1.1.1 -------------------------------------------------------------------------------- Analyzed: Pet Shop Boys / Nonetheless -------------------------------------------------------------------------------- DR Peak RMS Duration Track -------------------------------------------------------------------------------- DR5 -0.30 dB -7.48 dB 5:37 01-Loneliness DR5 -0.30 dB -6.74 dB 5:02 02-Feel DR5 -0.30 dB -7.02 dB 3:33 03-Why am I dancing? DR5 -0.30 dB -7.32 dB 4:53 04-New London boy DR6 -0.30 dB -7.88 dB 3:02 05-Dancing star DR4 -0.30 dB -5.96 dB 4:01 06-A new bohemia DR5 -0.30 dB -7.99 dB 3:29 07-The schlager hit parade DR5 -0.30 dB -7.15 dB 5:25 08-The secret of happiness DR6 -0.30 dB -7.32 dB 3:51 09-Bullet for Narcissus DR6 -0.30 dB -8.22 dB 5:00 10-Love is the law -------------------------------------------------------------------------------- Number of tracks: 10 Official DR value: DR5 Samplerate: 44100 Hz Channels: 2 Bits per sample: 24 Bitrate: 1645 kbps Codec: FLAC ================================================================================

Всего файлов в раздаче: 11 
01 Loneliness.flac69.47 MB
02 Feel.flac62.34 MB
03 Why am I dancing.flac46.16 MB
04 New London boy.flac61.41 MB
05 Dancing star.flac39.99 MB
06 A new bohemia.flac51.10 MB
07 The schlager hit parade.flac45.84 MB
08 The secret of happiness.flac67.64 MB
09 Bullet for Narcissus.flac49.50 MB
10 Love is the law.flac61.60 MB
Показать все файлы

Похожие раздачи по запросу - Pet
2024-04-27 magnet Pet Shop Boys - Nonetheless [2CD Deluxe] (2024) MP3 144.26 MB ↑ 0 ↓ 0
2024-04-26 magnet Pet Shop Boys - Nonetheless (2024) FLAC 313.12 MB ↑ 0 ↓ 0
2024-02-03 magnet Pet Shop Boys - Loneliness [24Bit, Hi-Res] (2024) FLAC 235.11 MB ↑ 0 ↓ 0
2024-01-07 magnet Pet Shop Boys - Коллекция [20 CD] (2024) FLAC 3.26 GB ↑ 0 ↓ 0
2023-10-24 magnet Кладбище домашних животных: Кровные узы / Pet Sematary: Bloodlines (2023) WEB-DLRip от MegaPeer | P 1.46 GB ↑ 0 ↓ 0
2023-06-16 magnet Pet Shop Boys - Smash - The Singles 1985-2020 [Remaster] (2023) MP3 512.58 MB ↑ 0 ↓ 0

Комментарии


Зарегистрируйтесь чтобы добавить комментарий
Торрент клиент
byTorrent - программа для загрузки торрент-файлов.

Скачать byTorrent.exe (1,5 МБ)

Скачать byTorrent.zip (0,6 МБ)

Поддержи torrent.by
российских рублей
(300 российских рублей это 4$)

Обратная связь rss

End game ©