↑↓torrent.by
Поиск
Логин:  Регистрация
Пароль:

Сёгун / Shôgun [S01] (2024) WEB-DL 1080p от Jaskier | P

download Скачать торрент-файл   magnet Магнитная ссылка Размер: 30.17 GB Добавлен: 2024-04-26 17:00
Пиры будут получены из сети DHT
Последний сидер был замечен 2024-04-27 00:26
Информация о фильме Название: Сёгун Оригинальное название: Shogun Год выхода: 2024 Жанр: драма, приключения, военный, история, боевик Режиссер: Фред Туа, Джонатан ван Тюллекен, Шарлотта Брандстром В ролях: Анна Саваи, Хироюки Санада, Космо Джарвис, Таданобу Асано, Юки Кэдоин, Eushin Lee, Томми Бастоу, Хирото Канаи, Хиромото Ида, Jaden Konishi О фильме: Япония, начало XVII века. Английский штурман Джон Блэкторн терпит крушение и попадает в закрытую для европейцев Страну восходящего солнца, где проходит путь от пленника на грани жизни и смерти до правой руки борющегося за власть самурая Торанаги. Страна: США Студия: DNA Films, FX Productions, Michael De Luca Productions Продолжительность: ~01:10:00 Перевод: Профессиональный (многоголосый закадровый) Jaskier Файл Кодек: MKV Качество: WEB-DL 1080p Видео: AVC, 1920x1080 (16:9), ~6647 kbps Звук: Аудио 1: Русский, AC-3, 48 kHz, 6 ch, 384 kbps | Jaskier Аудио 2: Английский, E-AC-3, 48 kHz, 6 ch, 256 kbps Субтитры: Английские (Full, SDH) Семпл
[+] Список серий 01. Андзин / Anjin 02. Слуги двух господ / Servants of Two Masters 03. Завтра будет завтра / Tomorrow Is Tomorrow 04. Восьмикратная ограда / The Eightfold Fence 05. Приученный к руке / Broken to the Fist 06. Девушки из «Ивового Мира» / Ladies of the Willow World 07. Пока горит палочка / A Stick of Time 08. Бездна жизни / The Abyss of Life 09. Багряное небо / Crimson Sky 10. Мечта о мечте / A Dream of a Dream
[+] MediaInfo General Unique ID : 227808688294668243443250207868725808198 (0xAB625B810BA56C53A76BD0BEA754CC46) Complete name : E:TorrentShogun.2024.S01.1080p.DSNP.WEB-DL.DDP5.1.H.264-JaskierShogun.2024.S01E01.Anjin.1080p.DSNP.WEB-DL.DDP5.1.H.264-Jaskier.mkv Format : Matroska Format version : Version 4 File size : 3.63 GiB Duration : 1 h 9 min Overall bit rate mode : Variable Overall bit rate : 7 435 kb/s Encoded date : UTC 2024-02-29 13:56:02 Writing application : mkvmerge v6.6.0 ('The Edge Of The In Between') built on Dec 1 2013 17:55:00 Writing library : libebml v1.3.0 + libmatroska v1.4.1 Video ID : 1 Format : AVC Format/Info : Advanced Video Codec Format profile : High@L4 Format settings : CABAC / 4 Ref Frames Format settings, CABAC : Yes Format settings, Reference frames : 4 frames Codec ID : V_MPEG4/ISO/AVC Duration : 1 h 9 min Bit rate mode : Variable Bit rate : 6 647 kb/s Maximum bit rate : 12.7 Mb/s Width : 1 920 pixels Height : 1 080 pixels Display aspect ratio : 16:9 Frame rate mode : Constant Frame rate : 24.000 FPS Color space : YUV Chroma subsampling : 4:2:0 Bit depth : 8 bits Scan type : Progressive Bits/(Pixel*Frame) : 0.134 Stream size : 3.25 GiB (89%) Default : Yes Forced : No Color range : Limited Color primaries : BT.709 Transfer characteristics : BT.709 Matrix coefficients : BT.709 Statistics Tags Issue : mkvmerge v81.0 ('Milliontown') 64-bit / mkvmerge v6.6.0 ('The Edge Of The In Between') built on Dec 1 2013 17:55:00 2024-02-29 13:56:02 FromStats_BitRate : 6792876 FromStats_Duration : 01:09:55.250000000 FromStats_FrameCount : 100686 FromStats_StreamSize : 3562227023 Audio #1 ID : 2 Format : AC-3 Format/Info : Audio Coding 3 Commercial name : Dolby Digital Codec ID : A_AC3 Duration : 1 h 9 min Bit rate mode : Constant Bit rate : 384 kb/s Channel(s) : 6 channels Channel layout : L R C LFE Ls Rs Sampling rate : 48.0 kHz Frame rate : 31.250 FPS (1536 SPF) Compression mode : Lossy Stream size : 192 MiB (5%) Title : Jaskier Language : Russian Service kind : Complete Main Default : Yes Forced : No Audio #2 ID : 3 Format : E-AC-3 Format/Info : Enhanced AC-3 Commercial name : Dolby Digital Plus Codec ID : A_EAC3 Duration : 1 h 9 min Bit rate mode : Constant Bit rate : 256 kb/s Channel(s) : 6 channels Channel layout : L R C LFE Ls Rs Sampling rate : 48.0 kHz Frame rate : 31.250 FPS (1536 SPF) Compression mode : Lossy Stream size : 128 MiB (3%) Title : Original Language : English Service kind : Complete Main Default : No Forced : No Statistics Tags Issue : mkvmerge v81.0 ('Milliontown') 64-bit / mkvmerge v6.6.0 ('The Edge Of The In Between') built on Dec 1 2013 17:55:00 2024-02-29 13:56:02 FromStats_BitRate : 256000 FromStats_Duration : 01:09:55.232000000 FromStats_FrameCount : 131101 FromStats_StreamSize : 134247424 Text #1 ID : 4 Format : UTF-8 Codec ID : S_TEXT/UTF8 Codec ID/Info : UTF-8 Plain Text Language : English Default : No Forced : No Statistics Tags Issue : mkvmerge v81.0 ('Milliontown') 64-bit / mkvmerge v6.6.0 ('The Edge Of The In Between') built on Dec 1 2013 17:55:00 2024-02-29 13:56:02 FromStats_BitRate : 45 FromStats_Duration : 01:05:14.583000000 FromStats_FrameCount : 690 FromStats_StreamSize : 22117 Text #2 ID : 5 Format : UTF-8 Codec ID : S_TEXT/UTF8 Codec ID/Info : UTF-8 Plain Text Title : SDH Language : English Default : No Forced : No Statistics Tags Issue : mkvmerge v81.0 ('Milliontown') 64-bit / mkvmerge v6.6.0 ('The Edge Of The In Between') built on Dec 1 2013 17:55:00 2024-02-29 13:56:02 FromStats_BitRate : 55 FromStats_Duration : 01:05:20.083000000 FromStats_FrameCount : 873 FromStats_StreamSize : 27353
[+] Скриншоты
Релиз от: Jaskier

Всего файлов в раздаче: 10 
Shogun.2024.S01E01.Anjin.1080p.DSNP.WEB-DL.DDP5.1.H.264-Jaskier.mkv3.63 GB
Shogun.2024.S01E02.Servants.of.Two.Masters.1080p.DSNP.WEB-DL.DDP5.1.H.264-Jaskier.mkv3.02 GB
Shogun.2024.S01E03.Tomorrow.Is.Tomorrow.1080p.DSNP.WEB-DL.DDP5.1.H.264-Jaskier.mkv2.78 GB
Shogun.2024.S01E04.The.Eightfold.Fence.1080p.DSNP.WEB-DL.DDP5.1.H.264-Jaskier.mkv2.95 GB
Shogun.2024.S01E05.Broken.to.the.Fist.1080p.DSNP.WEB-DL.DDP5.1.H.264-Jaskier.mkv2.87 GB
Shogun.2024.S01E06.Ladies.of.the.Willow.World.1080p.DSNP.WEB-DL.DDP5.1.H.264-Jaskier.mkv2.92 GB
Shogun.2024.S01E07.A.Stick.of.Time.REPACK.1080p.DSNP.WEB-DL.DDP5.1.H.264-Jaskier.mkv2.80 GB
Shogun.2024.S01E08.The.Abyss.of.Life.1080p.DSNP.WEB-DL.DDP5.1.H.264-Jaskier.mkv2.95 GB
Shogun.2024.S01E09.Crimson.Sky.1080p.DSNP.WEB-DL.DDP5.1.H.264-Jaskier.mkv3.06 GB
Shogun.2024.S01E10.A.Dream.of.a.Dream.1080p.DSNP.WEB-DL.DDP5.1.H.264-Jaskier.mkv3.18 GB

Похожие раздачи по запросу - Сёгун
2024-05-08 magnet Сёгун / Shôgun / Shogun [S01] (2024) WEB-DL 1080p | ViruseProject 29.65 GB ↑ 0 ↓ 0
2024-04-30 magnet Сёгун / Shôgun / Shogun [S01] (2024) WEB-DL 1080p | HDrezka Studio, LostFilm, Jaskier, TVShows, Кубик в Кубе, NewComers, Red Head Sound, Сербин 40.05 GB ↑ 1 ↓ 12
2024-04-30 magnet Сёгун / Shôgun / Shogun [S01] (2024) WEB-DL-HEVC 2160p | 4K | HDR | HDrezka Studio, LostFilm, Jaskier, TVShows, Кубик в Кубе, NewComers, Red Head Sound, Сербин 71.93 GB ↑ 0 ↓ 9
2024-04-30 magnet Сёгун / Shôgun [S01] (2024) WEB-DL 1080p от Scarabey | LostFilm, HDRezka, Jaskier 1К31.87 GB ↑ 0 ↓ 7
2024-04-29 magnet Сёгун / Shôgun / Shogun [S01] (2024) WEB-DLRip-AVC от DoMiNo & селезень | D, P | Red Head Sound, Jaskier 9.72 GB ↑ 0 ↓ 1
2024-04-29 magnet Сёгун / Shôgun / Shogun [S01] (2024) WEB-DL 1080p от ExKinoRay | D | Red Head Sound 29.39 GB ↑ 0 ↓ 0
2024-04-29 magnet Сёгун / Shôgun / Shogun [S01] (2024) WEB-DL 720p | D, P, P2, A 25.36 GB ↑ 0 ↓ 0

Кто качает (только для создателя раздачи и модераторов): Локальные пиры отсутствуют

Комментарии


Зарегистрируйтесь чтобы добавить комментарий
Торрент клиент
byTorrent - программа для загрузки торрент-файлов.

Скачать byTorrent.exe (1,5 МБ)

Скачать byTorrent.zip (0,6 МБ)

Поддержи torrent.by
российских рублей
(300 российских рублей это 4$)

Обратная связь rss

End game ©