↑↓torrent.by
Поиск
Логин:  Регистрация
Пароль:

Городской охотник / Shiti Hanta / City Hunter (2024) WEB-DL 1080p от JNS82 | L2 | Zetflix

download Скачать торрент-файл   magnet Магнитная ссылка Размер: 4.97 GB Добавлен: 2024-04-26 17:00
Пиры будут получены из сети DHT
Последний сидер был замечен 2024-04-29 01:35
Городской охотник / Shiti Hanta / City Hunter Год выпуска: 2024 Выпущено: Япония / Horipro, Netflix Studios, Office Shirous Жанр: боевик, мелодрама, комедия, криминал, детектив Режиссер: Юити Сато / Yuichi Sato В ролях: Рёхэй Судзуки, Мисато Морита, Масанобу Андо, Фумино Кимура, Асука Ханамура, Исао Хасидзумэ О фильме: Фильм основан на манге “Цукаса Ходзо”. Главный герой - Рё Саеба, мастер стрельбы и плейбой. Он объединяется с сестрой своего умершего партнера, чтобы расследовать его смерть. Продолжительность: 01:44:03 Перевод: Любительский (двухголосый, закадровый) | Zetflix | Дорожка с переводом собрана с выделенных голосов, работа со звуком KinoPub Субтитры: Русские, английские Автор релиза: JNS82. Формат: MKV Качество: WEB-DL 1080p | NF Видео: MPEG-4 AVC, 1920x1080, 5000 Кбит/с, (16:9), 24,000 fps Аудио #1: 48 kHz, E-AC3 Dolby Digital, 3/2 (L,C,R,l,r) + LFE ch, ~ 640 kbps | RUS | Аудио #2: 48 kHz, E-AC3 JOC Dolby Digital, 3/2 (L,C,R,l,r) + LFE ch, ~ 768 kbps | JAP | Аудио #3: 48 kHz, E-AC3 Dolby Digital, 3/2 (L,C,R,l,r) + LFE ch, ~ 640 kbps | ENG |
[+] MediaInfoОбщее Уникальный идентификатор : 317279369000376868318614510001679239955 (0xEEB1C8A3CD29D67FEB216E08B5BC0B13) Полное имя : D:TorrentsCity.Hunter.2024.1080p.NF_от_JNS82.mkv Формат : Matroska Версия формата : Version 4 Размер файла : 4,97 Гбайт Продолжительность : 1 ч. 44 мин. Режим общего битрейта : Переменный Общий битрейт : 6 842 Кбит/сек Частота кадров : 24,000 кадра/сек Название фильма : City.Hunter.2024.1080p.NF_от_JNS82 Дата кодирования : 2024-04-26 08:26:28 UTC Программа кодирования : mkvmerge v79.0 ('Funeral Pyres') 64-bit Библиотека кодирования : libebml v1.4.4 + libmatroska v1.7.1 Видео Идентификатор : 1 Формат : AVC Формат/Информация : Advanced Video Codec Профиль формата : Main@L4 Настройки формата : CABAC / 3 Ref Frames Параметр CABAC формата : Да Параметр RefFrames формата : 3 кадра Идентификатор кодека : V_MPEG4/ISO/AVC Продолжительность : 1 ч. 44 мин. Вид битрейта : Переменный Битрейт : 5 000 Кбит/сек Максимальный битрейт : 7 500 Кбит/сек Ширина : 1 920 пикселей Высота : 1 080 пикселей Соотношение сторон дисплея : 16:9 Режим частоты кадров : Постоянный Частота кадров : 24,000 кадра/сек Цветовое пространство : YUV Цветовая субдискретизация : 4:2:0 Битовая глубина : 8 бит Тип развёртки : Прогрессивная Бит/(Пиксели*Кадры) : 0.100 Размер потока : 3,48 Гбайт (70%) Библиотека кодирования : x264 core 148 r2727 7d026e8 Параметры библиотеки кодирования : cabac=1 / ref=3 / deblock=1:0:0 / analyse=0x1:0x111 / me=umh / subme=10 / psy=1 / psy_rd=1.00:0.00 / mixed_ref=1 / me_range=24 / chroma_me=1 / trellis=2 / 8x8dct=0 / cqm=0 / deadzone=21,11 / fast_pskip=1 / chroma_qp_offset=-2 / threads=6 / lookahead_threads=1 / sliced_threads=0 / nr=0 / decimate=1 / interlaced=0 / bluray_compat=0 / stitchable=1 / constrained_intra=0 / bframes=2 / b_pyramid=0 / b_adapt=2 / b_bias=0 / direct=3 / weightb=1 / open_gop=0 / weightp=2 / keyint=240 / keyint_min=121 / scenecut=0 / intra_refresh=0 / rc_lookahead=48 / rc=2pass / mbtree=1 / bitrate=5000 / ratetol=1.0 / qcomp=0.50 / qpmin=6 / qpmax=51 / qpstep=4 / cplxblur=20.0 / qblur=0.5 / vbv_maxrate=7500 / vbv_bufsize=10000 / nal_hrd=vbr / filler=0 / ip_ratio=1.40 / aq=1:1.00 Язык : Японский По умолчанию : Да Принудительно : Нет Аудио #1 Идентификатор : 2 Формат : E-AC-3 Формат/Информация : Enhanced AC-3 Коммерческое название : Dolby Digital Plus Идентификатор кодека : A_EAC3 Продолжительность : 1 ч. 44 мин. Вид битрейта : Постоянный Битрейт : 640 Кбит/сек Канал(-ы) : 6 каналов Расположение каналов : L R C LFE Ls Rs Частота дискретизации : 48,0 КГц Частота кадров : 31,250 кадров/сек (1536 SPF) Метод сжатия : С потерями Размер потока : 476 Мбайт (9%) Заголовок : DVO - Zetflix Язык : Русский Вид сервиса : Complete Main По умолчанию : Да Принудительно : Нет Нормализация звука речи : -31 dB dialnorm_Average : -31 dB dialnorm_Minimum : -31 dB dialnorm_Maximum : -31 dB Аудио #2 Идентификатор : 3 Формат : E-AC-3 JOC Формат/Информация : Enhanced AC-3 with Joint Object Coding Коммерческое название : Dolby Digital Plus with Dolby Atmos Идентификатор кодека : A_EAC3 Продолжительность : 1 ч. 44 мин. Вид битрейта : Постоянный Битрейт : 768 Кбит/сек Канал(-ы) : 6 каналов Расположение каналов : L R C LFE Ls Rs Частота дискретизации : 48,0 КГц Частота кадров : 31,250 кадров/сек (1536 SPF) Метод сжатия : С потерями Размер потока : 572 Мбайт (11%) Заголовок : Original Язык : Японский Вид сервиса : Complete Main По умолчанию : Нет Принудительно : Нет Показатель сложности : 16 Количество динамических объектов : 15 Число каналов бэда : 1 канал Конфигурация каналов бэда : LFE Нормализация звука речи : -27 dB compr : -0.28 dB dmixmod : 3 ltrtcmixlev : -3.0 dB ltrtsurmixlev : -3.0 dB lorocmixlev : -3.0 dB lorosurmixlev : -3.0 dB dialnorm_Average : -27 dB dialnorm_Minimum : -27 dB dialnorm_Maximum : -27 dB Аудио #3 Идентификатор : 4 Формат : E-AC-3 Формат/Информация : Enhanced AC-3 Коммерческое название : Dolby Digital Plus Идентификатор кодека : A_EAC3 Продолжительность : 1 ч. 44 мин. Вид битрейта : Постоянный Битрейт : 640 Кбит/сек Канал(-ы) : 6 каналов Расположение каналов : L R C LFE Ls Rs Частота дискретизации : 48,0 КГц Частота кадров : 31,250 кадров/сек (1536 SPF) Метод сжатия : С потерями Размер потока : 476 Мбайт (9%) Язык : Английский Вид сервиса : Complete Main По умолчанию : Нет Принудительно : Нет Нормализация звука речи : -28 dB compr : -0.28 dB dialnorm_Average : -28 dB dialnorm_Minimum : -28 dB dialnorm_Maximum : -28 dB Текст #1 Идентификатор : 5 Формат : UTF-8 Идентификатор кодека : S_TEXT/UTF8 Идентификатор кодека/Информация : UTF-8 Plain Text Продолжительность : 1 ч. 41 мин. Битрейт : 56 бит/сек Частота кадров : 0,167 кадр/сек Число элементов : 1023 Размер потока : 41,9 КиБ (0%) Заголовок : Язык : Русский По умолчанию : Нет Принудительно : Нет Текст #2 Идентификатор : 6 Формат : UTF-8 Идентификатор кодека : S_TEXT/UTF8 Идентификатор кодека/Информация : UTF-8 Plain Text Продолжительность : 1 ч. 41 мин. Битрейт : 36 бит/сек Частота кадров : 0,161 кадр/сек Число элементов : 981 Размер потока : 27,1 КиБ (0%) Заголовок : Язык : Английский По умолчанию : Нет Принудительно : Нет Текст #3 Идентификатор : 7 Формат : UTF-8 Идентификатор кодека : S_TEXT/UTF8 Идентификатор кодека/Информация : UTF-8 Plain Text Продолжительность : 1 ч. 41 мин. Битрейт : 60 бит/сек Частота кадров : 0,280 кадр/сек Число элементов : 1711 Размер потока : 45,4 КиБ (0%) Заголовок : Dub | SDH Язык : Английский По умолчанию : Нет Принудительно : Нет

Всего файлов в раздаче: 1 
City.Hunter.2024.1080p.NF_от_JNS82.mkv4.97 GB

Похожие раздачи по запросу - Городской
2024-04-26 magnet Городской охотник / Shiti Hanta / City Hunter (2024) WEB-DLRip 720p от DoMiNo | L2 | Zetflix 2.15 GB ↑ 0 ↓ 0

Комментарии


Зарегистрируйтесь чтобы добавить комментарий
Торрент клиент
byTorrent - программа для загрузки торрент-файлов.

Скачать byTorrent.exe (1,5 МБ)

Скачать byTorrent.zip (0,6 МБ)

Поддержи torrent.by
российских рублей
(300 российских рублей это 4$)

Обратная связь rss

End game ©