↑↓torrent.by
Поиск
Логин:  Регистрация
Пароль:

Теория простых чисел / Le théorème de Marguerite (2023) WEB-DL 1080p от ELEKTRI4KA | P

download Скачать торрент-файл   magnet Магнитная ссылка Размер: 6.18 GB Добавлен: 2024-04-26 17:00
Пиры будут получены из сети DHT
Последний сидер был замечен вчера в 21:26
Информация о фильме Название: Теория простых чисел Оригинальное название: Le théorème de Marguerite Год выхода: 2024 Жанр: драма Режиссер: Анна Новион В ролях: Элла Румпф, Жан-Пьер Дарруссен, Клотильда Куро, Жюльен Фрисон, Соня Бонни Эбумбу, Сяосин Чэн, Идир Азугли, Камиль де Сабле, Ава Байа О фильме: Будущее гениальной студентки факультета математики рушится в один момент: фатальная ошибка в исследовании ставит крест на работе, которой она посвятила все последние годы. Маргарита решает навсегда завязать с научной карьерой, и теперь ей предстоит столкнуться с простыми человеческими сложностями: найти новое жилье, работу, друзей, любовь. Но оказывается, бытовые вещи даются ей не так просто, как вычисления. Выпущено: Франция, Швейцария / Beauvoir Films, Canal+ , France 2 Cinéma Продолжительность: 01:53:10 Озвучивание: Профессиональное (многоголосое) | WinMedia Файл Формат: MKV Качество: WEB-DL 1080p Видео: MPEG-4 AVC, 6660 Kb/s, 1916x800 Аудио: Russian: AC3, 384 Kb/s (6 ch) / E-AC3, 384 Kb/s (6 ch), French: AC3, 384 Kb/s (6 ch) Субтитры: Russian (Forcedl, Full) Дополнительно: Нет Релиз группы: Мы в Telegram:
[+] MediaInfo:Complete name : Teoriya.prostyih.chisel.2023.FRENCH.WEB-DL.1080p.ELEKTRI4KA.mkv Format : Matroska Format version : Version 4 File size : 6.18 GiB Duration : 1 h 53 min Overall bit rate : 7 815 kb/s Movie name : Teoriya.prostyih.chisel.2023.FRENCH.WEB-DL.1080p.ELEKTRI4KA. Encoded date : UTC 2024-04-25 20:42:28 Writing application : mkvmerge v8.3.0 ('Over the Horizon') 64bit Writing library : libebml v1.3.1 + libmatroska v1.4.2 Video ID : 1 Format : AVC Format/Info : Advanced Video Codec Format profile : High@L4 Format settings : CABAC / 5 Ref Frames Format settings, CABAC : Yes Format settings, Reference frames : 5 frames Codec ID : V_MPEG4/ISO/AVC Duration : 1 h 53 min Bit rate : 6 660 kb/s Width : 1 916 pixels Height : 800 pixels Display aspect ratio : 2.40:1 Frame rate mode : Constant Frame rate : 24.000 FPS Color space : YUV Chroma subsampling : 4:2:0 Bit depth : 8 bits Scan type : Progressive Bits/(Pixel*Frame) : 0.181 Stream size : 5.27 GiB (85%) Default : Yes Forced : No Color range : Limited Color primaries : BT.709 Transfer characteristics : BT.709 Matrix coefficients : BT.709 Audio #1 ID : 2 Format : AC-3 Format/Info : Audio Coding 3 Commercial name : Dolby Digital Codec ID : A_AC3 Duration : 1 h 53 min Bit rate mode : Constant Bit rate : 384 kb/s Channel(s) : 6 channels Channel layout : L R C LFE Ls Rs Sampling rate : 48.0 kHz Frame rate : 31.250 FPS (1536 SPF) Compression mode : Lossy Stream size : 311 MiB (5%) Title : MVO AC3 (WinMedia) Language : Russian Service kind : Complete Main Default : Yes Forced : Yes Audio #2 ID : 3 Format : E-AC-3 Format/Info : Enhanced AC-3 Commercial name : Dolby Digital Plus Codec ID : A_EAC3 Duration : 1 h 53 min Bit rate mode : Constant Bit rate : 384 kb/s Channel(s) : 6 channels Channel layout : L R C LFE Ls Rs Sampling rate : 48.0 kHz Frame rate : 31.250 FPS (1536 SPF) Compression mode : Lossy Stream size : 311 MiB (5%) Title : MVO EAC3 (WinMedia) Language : Russian Service kind : Complete Main Default : No Forced : No Audio #3 ID : 4 Format : AC-3 Format/Info : Audio Coding 3 Commercial name : Dolby Digital Codec ID : A_AC3 Duration : 1 h 53 min Bit rate mode : Constant Bit rate : 384 kb/s Channel(s) : 6 channels Channel layout : L R C LFE Ls Rs Sampling rate : 48.0 kHz Frame rate : 31.250 FPS (1536 SPF) Compression mode : Lossy Stream size : 311 MiB (5%) Title : Original Language : French Service kind : Complete Main Default : No Forced : No Text #1 ID : 5 Format : UTF-8 Codec ID : S_TEXT/UTF8 Codec ID/Info : UTF-8 Plain Text Duration : 1 h 44 min Bit rate : 0 b/s Count of elements : 12 Stream size : 330 Bytes (0%) Title : Forced Language : Russian Default : Yes Forced : Yes Text #2 ID : 6 Format : UTF-8 Codec ID : S_TEXT/UTF8 Codec ID/Info : UTF-8 Plain Text Duration : 1 h 47 min Bit rate : 61 b/s Count of elements : 1000 Stream size : 48.3 KiB (0%) Title : Full Language : Russian Default : No Forced : No
[+] Скриншоты

Всего файлов в раздаче: 1 
Teoriya.prostyih.chisel.2023.FRENCH.WEB-DL.1080p.ELEKTRI4KA.mkv6.18 GB

Похожие раздачи по запросу - Теория
2024-04-27 magnet Теория простых чисел / Le théorème de Marguerite (2023) WEB-DLRip 720p от DoMiNo & селезень | P 2.25 GB ↑ 0 ↓ 0
2024-04-26 magnet Теория простых чисел / Le théorème de Marguerite (2023) WEB-DLRip от ELEKTRI4KA | P 1.46 GB ↑ 0 ↓ 0
2023-10-19 magnet Теория больших денег [S01] (2023) WEB-DLRip 4.62 GB ↑ 0 ↓ 0

Кто качает (только для создателя раздачи и модераторов): Локальные пиры отсутствуют

Комментарии


Зарегистрируйтесь чтобы добавить комментарий
Торрент клиент
byTorrent - программа для загрузки торрент-файлов.

Скачать byTorrent.exe (1,5 МБ)

Скачать byTorrent.zip (0,6 МБ)

Поддержи torrent.by
российских рублей
(300 российских рублей это 4$)

Обратная связь rss

End game ©