↑↓torrent.by
Поиск
Логин:  Регистрация
Пароль:

Любовь истекает кровью / Love Lies Bleeding (2024) WEB-DL 1080p от New-Team | L | Soundmasters

download Скачать торрент-файл   magnet Магнитная ссылка Размер: 7.54 GB Добавлен: 2024-04-26 17:00
Пиры будут получены из сети DHT
Последний сидер был замечен 2024-05-15 03:06
Любовь истекает кровью / Love Lies Bleeding Год выпуска: 2024 Выпущено: Великобритания, США / A24, Film4, Escape Plan Productions, Lobo Films Жанр: триллер, криминал, мелодрама Режиссер: Роуз Гласс / Rose Glass В ролях: Кэти М. О’Брайен, Кристен Стюарт, Эд Харрис, Джена Мэлоун, Анна Барышников, Дэйв Франко, Элдон Джонс, Кэтрин Хоун, Орион Кэррингтон, Мэттью Блад-Смит О фильме: Любовь, разжигающая насилие и затягивающая в криминал. Менеджерка тренажерного зала влюбляется в амбициозную бодибилдерку, которая в погоне за своей мечтой направляется в Вегас. Их страсть выливается в опасное приключение, которое затянет их обоих в сети преступных связей. Продолжительность: 01:43:52 Перевод: Любительский (многоголосый, закадровый) | Soundmasters | 18 + Субтитры: Английские (full, SDH) Раздача от: Автор релиза: JNS82. Формат: MKV Качество: WEB-DL 1080p | AMZN Видео: MPEG-4 AVC, 1920x800, 9171 Кбит/с, (2,40:1), 23,976 fps Аудио #1: 48 kHz, AC3 Dolby Digital, 3/2 (L,C,R,l,r) + LFE ch, ~ 448 kbps | RUS | Аудио #2: 48 kHz, E-AC3 JOC Dolby Digital, 3/2 (L,C,R,l,r) + LFE ch, ~ 768 kbps | ENG |
[+] MediaInfoОбщее Уникальный идентификатор : 110831738775796311045060416301170834544 (0x53616A9C7240579773CD04299EE23C70) Полное имя : D:TorrentsLove.Lies.Bleeding.2024.1080p.AMZN_ от New-Team.mkv Формат : Matroska Версия формата : Version 4 Размер файла : 7,54 Гбайт Продолжительность : 1 ч. 43 мин. Общий битрейт : 10,4 Мбит/сек Частота кадров : 23,976 кадра/сек Название фильма : Love.Lies.Bleeding.2024.1080p.AMZN_ от New-Team Дата кодирования : 2024-04-26 07:25:51 UTC Программа кодирования : mkvmerge v79.0 ('Funeral Pyres') 64-bit Библиотека кодирования : libebml v1.4.4 + libmatroska v1.7.1 Видео Идентификатор : 1 Формат : AVC Формат/Информация : Advanced Video Codec Профиль формата : High@L4 Настройки формата : CABAC / 4 Ref Frames Параметр CABAC формата : Да Параметр RefFrames формата : 4 кадра Идентификатор кодека : V_MPEG4/ISO/AVC Продолжительность : 1 ч. 43 мин. Вид битрейта : Постоянный Битрейт : 9 171 Кбит/сек Номинальный битрейт : 10 000 Кбит/сек Ширина : 1 920 пикселей Высота : 800 пикселей Соотношение сторон дисплея : 2,40:1 Режим частоты кадров : Постоянный Частота кадров : 23,976 (24000/1001) кадра/сек Цветовое пространство : YUV Цветовая субдискретизация : 4:2:0 Битовая глубина : 8 бит Тип развёртки : Прогрессивная Бит/(Пиксели*Кадры) : 0.249 Размер потока : 6,65 Гбайт (88%) Язык : Английский (US) По умолчанию : Да Принудительно : Нет Цветовой диапазон : Limited Основные цвета : BT.709 Характеристики трансфера : BT.709 Коэффициенты матрицы : BT.709 Аудио #1 Идентификатор : 2 Формат : AC-3 Формат/Информация : Audio Coding 3 Коммерческое название : Dolby Digital Идентификатор кодека : A_AC3 Продолжительность : 1 ч. 43 мин. Вид битрейта : Постоянный Битрейт : 448 Кбит/сек Канал(-ы) : 6 каналов Расположение каналов : L R C LFE Ls Rs Частота дискретизации : 48,0 КГц Частота кадров : 31,250 кадров/сек (1536 SPF) Метод сжатия : С потерями Размер потока : 333 Мбайт (4%) Заголовок : MVO - Soundmasters | 18 + Язык : Русский Вид сервиса : Complete Main По умолчанию : Да Принудительно : Нет Нормализация звука речи : -31 dB cmixlev : -4.5 dB surmixlev : -6 dB dialnorm_Average : -31 dB dialnorm_Minimum : -31 dB dialnorm_Maximum : -31 dB Аудио #2 Идентификатор : 3 Формат : E-AC-3 JOC Формат/Информация : Enhanced AC-3 with Joint Object Coding Коммерческое название : Dolby Digital Plus with Dolby Atmos Идентификатор кодека : A_EAC3 Продолжительность : 1 ч. 43 мин. Вид битрейта : Постоянный Битрейт : 768 Кбит/сек Канал(-ы) : 6 каналов Расположение каналов : L R C LFE Ls Rs Частота дискретизации : 48,0 КГц Частота кадров : 31,250 кадров/сек (1536 SPF) Метод сжатия : С потерями Задержка видео : 20 мс. Размер потока : 571 Мбайт (7%) Заголовок : Original Язык : Английский (US) Вид сервиса : Complete Main По умолчанию : Нет Принудительно : Нет Показатель сложности : 16 Количество динамических объектов : 15 Число каналов бэда : 1 канал Конфигурация каналов бэда : LFE Нормализация звука речи : -26 dB compr : -0.28 dB dialnorm_Average : -26 dB dialnorm_Minimum : -26 dB dialnorm_Maximum : -26 dB Текст #1 Идентификатор : 4 Формат : UTF-8 Идентификатор кодека : S_TEXT/UTF8 Идентификатор кодека/Информация : UTF-8 Plain Text Продолжительность : 1 ч. 34 мин. Битрейт : 44 бит/сек Частота кадров : 0,206 кадр/сек Число элементов : 1173 Размер потока : 31,0 КиБ (0%) Заголовок : Язык : Английский (US) По умолчанию : Нет Принудительно : Нет Текст #2 Идентификатор : 5 Формат : UTF-8 Идентификатор кодека : S_TEXT/UTF8 Идентификатор кодека/Информация : UTF-8 Plain Text Продолжительность : 1 ч. 43 мин. Битрейт : 58 бит/сек Частота кадров : 0,268 кадр/сек Число элементов : 1662 Размер потока : 44,4 КиБ (0%) Заголовок : Язык : Английский (US) По умолчанию : Нет Принудительно : Нет Меню 00:00:00.000 : en:Chapter 1 00:09:34.949 : en:Chapter 2 00:19:44.309 : en:Chapter 3 00:29:39.362 : en:Chapter 4 00:39:23.238 : en:Chapter 5 00:49:04.736 : en:Chapter 6 00:59:21.936 : en:Chapter 7 01:10:45.036 : en:Chapter 8 01:19:27.350 : en:Chapter 9 01:29:57.313 : en:Chapter 10 01:38:09.431 : en:Chapter 11

Всего файлов в раздаче: 1 
Love.Lies.Bleeding.2024.1080p.AMZN_ от New-Team.mkv7.54 GB

Похожие раздачи по запросу - Любовь
2024-05-20 magnet Запретная любовь / The Edge of Love (2008) BDRip-AVC от msltel | P, P2 3.51 GB ↑ 0 ↓ 0
2024-05-14 magnet Любовь и сёрфинг / Под настилом / Under the Boardwalk (1988) BDRip | P 1.46 GB ↑ 0 ↓ 0
2024-05-13 magnet Полина Аронсон - Любовь: сделай сам. Как мы стали менеджерами своих чувств (2020) FB2, EPUB, PDF 3.63 MB ↑ 0 ↓ 0
2024-05-12 magnet Mama Russia - Любовь, комсомол и роботы (2024) FLAC 345.90 MB ↑ 0 ↓ 0
2024-05-08 magnet Любовь на миллион / The Modelizer / Hong Kong Love Story (2023) WEB-DLRip от New-Team | D 1.46 GB ↑ 0 ↓ 0
2024-05-04 magnet Любовь истекает кровью / Love Lies Bleeding (2024) WEB-DL 1080p от New-Team | D, L | Soundmasters 7.68 GB ↑ 0 ↓ 0
2024-05-03 magnet Вечная любовь [S01] (2024) WEB-DLRip от Generalfilm | КПК 741.54 MB ↑ 0 ↓ 0

Кто качает (только для создателя раздачи и модераторов): Локальные пиры отсутствуют

Комментарии


Зарегистрируйтесь чтобы добавить комментарий
Торрент клиент
byTorrent - программа для загрузки торрент-файлов.

Скачать byTorrent.exe (1,5 МБ)

Скачать byTorrent.zip (0,6 МБ)

Поддержи torrent.by
российских рублей
(300 российских рублей это 4$)

Обратная связь rss

End game ©