↑↓torrent.by
Поиск
Логин:  Регистрация
Пароль:

Любовь истекает кровью / Love Lies Bleeding (2024) WEB-DLRip-AVC от New-Team | L | Soundmasters

download Скачать торрент-файл   magnet Магнитная ссылка Размер: 1.65 GB Добавлен: 2024-04-26 17:00
Пиры будут получены из сети DHT
Последний сидер был замечен 2024-05-16 00:23
Любовь истекает кровью / Love Lies Bleeding Год выпуска: 2024 Выпущено: Великобритания, США / A24, Film4, Escape Plan Productions Жанр: триллер, криминал, мелодрама Режиссер: Роуз Гласс / Rose Glass В ролях: Кэти М. О’Брайен, Кристен Стюарт, Эд Харрис, Джена Мэлоун, Анна Барышников, Дэйв Франко, Элдон Джонс, Кэтрин Хоун, Орион Кэррингтон, Мэттью Блад-Смит О фильме: Любовь, разжигающая насилие и затягивающая в криминал. Менеджерка тренажерного зала влюбляется в амбициозную бодибилдерку, которая в погоне за своей мечтой направляется в Вегас. Их страсть выливается в опасное приключение, которое затянет их обоих в сети преступных связей. Продолжительность: 01:43:52 Перевод: Любительский (многоголосый, закадровый) | Soundmasters | 18 + Субтитры: Английские (full) Раздача от: Автор релиза: JNS82. Формат: MKV Качество: WEB-DLRip-AVC Видео: MPEG-4 AVC, 1024x428, 1830 Кбит/с, (2,40:1), 23,976 fps Аудио #1: 48 kHz, AC3 Dolby Digital, 3/2 (L,C,R,l,r) + LFE ch, ~ 448 kbps | RUS |
[+] MediaInfoОбщее Уникальный идентификатор : 33141196700595267048351389707258992586 (0x18EEC326DE92C5D0A8E4A1E4DD8697CA) Полное имя : D:TorrentsLove.Lies.Bleeding.2024.WEB-DLRip-AVC_от New-Team_by_JNS82.mkv Формат : Matroska Версия формата : Version 4 Размер файла : 1,65 Гбайт Продолжительность : 1 ч. 43 мин. Общий битрейт : 2 279 Кбит/сек Частота кадров : 23,976 кадра/сек Название фильма : Love.Lies.Bleeding.2024.WEB-DLRip-AVC_от New-Team_by_JNS82 Дата кодирования : 2024-04-26 07:45:35 UTC Программа кодирования : mkvmerge v79.0 ('Funeral Pyres') 64-bit Библиотека кодирования : libebml v1.4.4 + libmatroska v1.7.1 Видео Идентификатор : 1 Формат : AVC Формат/Информация : Advanced Video Codec Профиль формата : High@L4.1 Настройки формата : CABAC / 12 Ref Frames Параметр CABAC формата : Да Параметр RefFrames формата : 12 кадров Идентификатор кодека : V_MPEG4/ISO/AVC Продолжительность : 1 ч. 43 мин. Битрейт : 1 830 Кбит/сек Ширина : 1 024 пикселя Высота : 428 пикселей Соотношение сторон дисплея : 2,39:1 Режим частоты кадров : Постоянный Частота кадров : 23,976 (24000/1001) кадра/сек Цветовое пространство : YUV Цветовая субдискретизация : 4:2:0 Битовая глубина : 8 бит Тип развёртки : Прогрессивная Бит/(Пиксели*Кадры) : 0.174 Размер потока : 1,33 Гбайт (80%) Библиотека кодирования : x264 core 164 r3156+57M NewTeam t_mod_New Параметры библиотеки кодирования : cabac=1 / ref=12 / deblock=1:-2:-2 / analyse=0x3:0x113 / me=umh / subme=10 / psy=1 / fade_compensate=0.00 / psy_rd=1.03:0.01 / mixed_ref=1 / me_range=32 / chroma_me=1 / trellis=2 / 8x8dct=1 / cqm=0 / deadzone=21,11 / fast_pskip=0 / chroma_qp_offset=-3 / threads=13 / lookahead_threads=3 / sliced_threads=0 / nr=0 / decimate=0 / interlaced=0 / bluray_compat=0 / constrained_intra=0 / fgo=0 / bframes=10 / b_pyramid=2 / b_adapt=2 / b_bias=0 / direct=3 / weightb=1 / open_gop=0 / weightp=2 / keyint=240 / keyint_min=24 / scenecut=40 / intra_refresh=0 / rc_lookahead=60 / rc=2pass / mbtree=0 / bitrate=1830 / ratetol=1.0 / qcomp=0.60 / qpmin=0:0:0 / qpmax=69:69:69 / qpstep=5 / cplxblur=20.0 / qblur=0.5 / vbv_maxrate=50000 / vbv_bufsize=62500 / nal_hrd=none / filler=0 / ip_ratio=1.30 / pb_ratio=1.25 / aq=1:1.00 / aq-sensitivity=10.00 / aq-factor=1.00:1.00:1.00 / aq2=0 / aq3=0 Язык : Английский По умолчанию : Да Принудительно : Нет Аудио Идентификатор : 2 Формат : AC-3 Формат/Информация : Audio Coding 3 Коммерческое название : Dolby Digital Идентификатор кодека : A_AC3 Продолжительность : 1 ч. 43 мин. Вид битрейта : Постоянный Битрейт : 448 Кбит/сек Канал(-ы) : 6 каналов Расположение каналов : L R C LFE Ls Rs Частота дискретизации : 48,0 КГц Частота кадров : 31,250 кадров/сек (1536 SPF) Метод сжатия : С потерями Размер потока : 333 Мбайт (20%) Заголовок : MVO - Soundmasters | 18 + Язык : Русский Вид сервиса : Complete Main По умолчанию : Да Принудительно : Нет Нормализация звука речи : -31 dB cmixlev : -4.5 dB surmixlev : -6 dB dialnorm_Average : -31 dB dialnorm_Minimum : -31 dB dialnorm_Maximum : -31 dB Текст Идентификатор : 3 Формат : UTF-8 Идентификатор кодека : S_TEXT/UTF8 Идентификатор кодека/Информация : UTF-8 Plain Text Продолжительность : 1 ч. 34 мин. Битрейт : 44 бит/сек Частота кадров : 0,206 кадр/сек Число элементов : 1173 Размер потока : 31,0 КиБ (0%) Заголовок : Язык : Английский По умолчанию : Нет Принудительно : Нет Меню 00:00:00.000 : en:Chapter 1 00:09:34.949 : en:Chapter 2 00:19:44.309 : en:Chapter 3 00:29:39.362 : en:Chapter 4 00:39:23.238 : en:Chapter 5 00:49:04.736 : en:Chapter 6 00:59:21.936 : en:Chapter 7 01:10:45.036 : en:Chapter 8 01:19:27.350 : en:Chapter 9 01:29:57.313 : en:Chapter 10 01:38:09.431 : en:Chapter 11

Всего файлов в раздаче: 1 
Love.Lies.Bleeding.2024.WEB-DLRip-AVC_от New-Team_by_JNS82.mkv1.65 GB

Похожие раздачи по запросу - Любовь
Сегодня magnet Запретная любовь / Tainted Love (1998) DVDRip | P2 1.37 GB ↑ 0 ↓ 0
2024-05-20 magnet Запретная любовь / The Edge of Love (2008) BDRip-AVC от msltel | P, P2 3.51 GB ↑ 0 ↓ 0
2024-05-14 magnet Любовь и сёрфинг / Под настилом / Under the Boardwalk (1988) BDRip | P 1.46 GB ↑ 0 ↓ 0
2024-05-13 magnet Полина Аронсон - Любовь: сделай сам. Как мы стали менеджерами своих чувств (2020) FB2, EPUB, PDF 3.63 MB ↑ 0 ↓ 0
2024-05-12 magnet Mama Russia - Любовь, комсомол и роботы (2024) FLAC 345.90 MB ↑ 0 ↓ 0
2024-05-08 magnet Любовь на миллион / The Modelizer / Hong Kong Love Story (2023) WEB-DLRip от New-Team | D 1.46 GB ↑ 0 ↓ 0
2024-05-04 magnet Любовь истекает кровью / Love Lies Bleeding (2024) WEB-DL 1080p от New-Team | D, L | Soundmasters 7.68 GB ↑ 0 ↓ 0

Кто качает (только для создателя раздачи и модераторов): Локальные пиры отсутствуют

Комментарии


Зарегистрируйтесь чтобы добавить комментарий
Торрент клиент
byTorrent - программа для загрузки торрент-файлов.

Скачать byTorrent.exe (1,5 МБ)

Скачать byTorrent.zip (0,6 МБ)

Поддержи torrent.by
российских рублей
(300 российских рублей это 4$)

Обратная связь rss

End game ©