↑↓torrent.by
Поиск
Логин:  Регистрация
Пароль:

Ректор [S01] (2024) WEBRip 720p

download Скачать торрент-файл   magnet Магнитная ссылка Размер: 4.48 GB Добавлен: 2024-04-27 17:00
Пиры будут получены из сети DHT
Последний сидер был замечен 2024-05-21 00:53
Информация о фильме Название: Ректор Год выхода: 2024 Жанр: Драма, комедия Режиссёр: Роман Фокин В ролях: Владимир Канухин, Анастасия Шукевич, Елена Морозова, Михаил Горевой, Виктория Полторак, Никита Санаев, Даниил Спиваковский, Ирина Низина, Илья Ловкий, Андрей Лавров, Светлана Рубан, Людмила Светлова, Ярослава Яновская, Алексей Чернышев, Виктор Кузин, Александр Кухаренко, Павел Кравец, Владимир Потапов, Евгения Ивашова, Златия Нечаева, Михаил Свинцов, Денис Бондаренко О фильме: Лаврентий Семенович Тимошин, или попросту Лаврик, — молодой, перспективный, но очень тревожный кандидат наук, возглавляющий лабораторию биохимии серьезного НИУ и уже не первый год разрабатывающий лекарство от страха. Главным образом — от своего собственного. Лаврик боится всего — научных свершений, гнева матери, любви и реформ в НИУ. Последние не заставляют себя ждать. Ректор института Богомолов, который уже давно занимает эту должность, хочет уступить свой пост молодому поколению, и Лаврик — лучшая кандидатура. Только станет ли эта должность благом для Лаврика и позволит ли она все-таки завершить его исследование, особенно когда столь крутые изменения выходят далеко за пределы карьерного роста? Страна: Россия Студия: Институт развития интернета, Студия творческих инициатив «Открытие» Продолжительность: 8 х ~ 00:25:00 Язык: Русский Премьера в Росcии: 25 апреля 2024 года Цифровой релиз: 25 апреля 2024 года Примечание: Без рекламы Возраст: 16+ Файл Формат: MKV Качество: WEBRip 720p Видео: MPEG-4 AVC, ~ 2900 Кбит/с, 1280x720 Звук: AC3, 2 ch, 192 Кбит/с Субтитры: Отсутствуют Семпл
[+] Скриншоты
[+] MIОбщее Уникальный идентификатор : 198404611048569630112621857823363619416 (0x9543569126150772A5B4EBC578E2DA58) Полное имя : C:UsersAdminDesktopRektor.2024.WEB-DL.720p.by.ivandubskoje01.mkv Формат : Matroska Версия формата : Version 4 Размер файла : 575 Мбайт Продолжительность : 25 м. 46 с. Режим общего битрейта : Переменный Общий поток : 3 121 Кбит/сек Дата кодирования : UTC 2024-04-24 23:05:20 Программа кодирования : mkvmerge v7.8.0 ('River Man') 32bit built on Apr 3 2015 12:11:22 Библиотека кодирования : libebml v1.3.1 + libmatroska v1.4.2 Видео Идентификатор : 1 Формат : AVC Формат/Информация : Advanced Video Codec Профиль формата : High@L4.1 Настройки формата : CABAC / 4 Ref Frames Параметр CABAC формата : Да Параметр RefFrames формата : 4 кадра Идентификатор кодека : V_MPEG4/ISO/AVC Продолжительность : 25 м. 46 с. Вид битрейта : Переменный Битрейт : 2 866 Кбит/сек Максимальный битрейт : 3 000 Кбит/сек Ширина : 1 280 пикселей Высота : 720 пикселей Соотношение сторон : 16:9 Режим частоты кадров : Постоянный Частота кадров : 25,000 кадров/сек Цветовое пространство : YUV Субдискретизация насыщенности : 4:2:0 Битовая глубина : 8 бит Тип развёртки : Прогрессивная Бит/(Пиксели*Кадры) : 0.124 Размер потока : 528 Мбайт (92%) Язык : Russian Default : Да Forced : Нет Цветовой диапазон : Limited Основные цвета : BT.709 Характеристики трансфера : BT.709 Коэффициенты матрицы : BT.709 Аудио Идентификатор : 2 Формат : AC-3 Формат/Информация : Audio Coding 3 Коммерческое название : Dolby Digital Идентификатор кодека : A_AC3 Продолжительность : 25 м. 46 с. Вид битрейта : Постоянный Битрейт : 192 Кбит/сек Каналы : 2 канала Channel layout : L R Частота : 48,0 КГц Частота кадров : 31,250 кадров/сек (1536 SPF) Метод сжатия : С потерями Размер потока : 35,4 Мбайт (6%) Язык : Russian Service kind : Complete Main Default : Да Forced : Нет

Всего файлов в раздаче: 8 
e01.mkv575.26 MB
e02.mkv596.96 MB
e03.mkv565.94 MB
e04.mkv558.63 MB
e05.mkv572.93 MB
e06.mkv570.45 MB
e07.mkv570.18 MB
e08.mkv573.32 MB

Похожие раздачи по запросу - Ректор
2024-04-29 magnet Ректор [S01] (2024) WEBRip-AVC от Generalfilm | КПК 931.20 MB ↑ 0 ↓ 0
2024-04-26 magnet Ректор [S01] (2024) WEBRip-AVC от Files-x 2.57 GB ↑ 0 ↓ 0
2024-04-25 magnet Ректор [S01] (2024) WEB-DLRip от от Files-x 2.51 GB ↑ 0 ↓ 0
2024-04-25 magnet Ректор [S01] (2024) WEBRip 1080p от ExKinoRay 6.57 GB ↑ 0 ↓ 0

Комментарии


Зарегистрируйтесь чтобы добавить комментарий
Торрент клиент
byTorrent - программа для загрузки торрент-файлов.

Скачать byTorrent.exe (1,5 МБ)

Скачать byTorrent.zip (0,6 МБ)

Поддержи torrent.by
российских рублей
(300 российских рублей это 4$)

Обратная связь rss

End game ©