↑↓torrent.by
Поиск
Логин:  Регистрация
Пароль:

Eric Clapton - To Save a Child [24Bit, Hi-Res] (2024) FLAC

download Скачать торрент-файл   magnet Магнитная ссылка Размер: 826.23 MB Добавлен: 2024-04-28 05:00
Пиры будут получены из сети DHT
Последний сидер был замечен 2024-05-19 18:25
Eric Clapton - To Save a Child (2024) Жанр: Rock Издание: Bushbranch - Surfdog Records Источник: ссылка Продолжительность: 01:07:08 Кодек: FLAC 24/48 Битрейт: Lossless|WEB-DL Тип рипа: tracks Треклист: 01 - Voice of a Child (00:03:31) 02 - Tears in Heaven (00:04:31) 03 - Layla (00:06:00) 04 - Nobody Knows You When You're Down and Out (00:03:23) 05 - Key To The Highway (00:05:22) 06 - Hoochie Coochie Man (00:05:00) 07 - River of Tears (00:07:07) 08 - Got To Get Better In A Little While (00:09:28) 09 - The Sky Is Crying (00:07:45) 10 - Crossroads (00:06:58) 11 - Give Me Love (Give Me Peace on Earth) (00:04:03) 12 - Prayer of a Child (00:03:57)
[+] Отчёт Dynamic Range Meter: foobar2000 1.6.11 / Dynamic Range Meter 1.1.1 log date: 2024-04-25 19:30:01 -------------------------------------------------------------------------------- Analyzed: Eric Clapton / To Save a Child -------------------------------------------------------------------------------- DR Peak RMS Duration Track -------------------------------------------------------------------------------- DR13 -0.11 dB -15.33 dB 3:31 01-Voice of a Child (Live) DR12 -0.10 dB -13.84 dB 4:31 02-Tears in Heaven (Live) DR12 -0.10 dB -14.04 dB 6:00 03-Layla (Live) DR9 -0.10 dB -10.78 dB 3:24 04-Nobody Knows You When You're Down and Out (Live) DR8 -0.10 dB -8.60 dB 5:22 05-Key To The Highway (Live) DR8 -0.10 dB -9.47 dB 5:00 06-Hoochie Coochie Man (Live) DR8 -0.10 dB -12.19 dB 7:07 07-River of Tears (Live) DR7 -0.10 dB -8.15 dB 9:28 08-Got To Get Better In A Little While (Live) DR7 -0.10 dB -9.65 dB 7:45 09-The Sky Is Crying (Live) DR7 -0.10 dB -7.71 dB 6:59 10-Crossroads (Live) DR8 -0.10 dB -10.38 dB 4:04 11-Give Me Love (Give Me Peace on Earth) (Live) DR11 -0.11 dB -14.27 dB 3:58 12-Prayer of a Child -------------------------------------------------------------------------------- Number of tracks: 12 Official DR value: DR9 Samplerate: 48000 Hz Channels: 2 Bits per sample: 24 Bitrate: 1570 kbps Codec: FLAC ================================================================================

Всего файлов в раздаче: 13 
01 - Voice of a Child.flac39.64 MB
02 - Tears in Heaven.flac52.32 MB
03 - Layla.flac67.86 MB
04 - Nobody Knows You When You're Down and Out.flac41.47 MB
05 - Key To The Highway.flac69.38 MB
06 - Hoochie Coochie Man.flac64.44 MB
07 - River of Tears.flac81.33 MB
08 - Got To Get Better In A Little While.flac125.61 MB
09 - The Sky Is Crying.flac94.66 MB
10 - Crossroads.flac90.51 MB
Показать все файлы

Похожие раздачи по запросу - Eric
2024-05-14 magnet Eric Clapton - Rarities 1983-1998 [24-bit Hi-Res] (2023) FLAC 833.92 MB ↑ 0 ↓ 0
2024-04-30 magnet Eric Clapton - To Save A Child (2024) MP3 155.79 MB ↑ 0 ↓ 0
2024-04-26 magnet Eric Clapton - To Save a Child (2024) FLAC 432.06 MB ↑ 0 ↓ 0

Кто качает (только для создателя раздачи и модераторов): Локальные пиры отсутствуют

Комментарии


Зарегистрируйтесь чтобы добавить комментарий
Торрент клиент
byTorrent - программа для загрузки торрент-файлов.

Скачать byTorrent.exe (1,5 МБ)

Скачать byTorrent.zip (0,6 МБ)

Поддержи torrent.by
российских рублей
(300 российских рублей это 4$)

Обратная связь rss

End game ©