↑↓torrent.by
Поиск
Логин:  Регистрация
Пароль:

Спуск / The Descent (2005) BDRip 1080p | D

download Скачать торрент-файл   magnet Магнитная ссылка Размер: 4.37 GB Добавлен: 2024-04-28 05:00
Пиры будут получены из сети DHT
Последний сидер был замечен 2024-04-28 20:49
Информация о фильме Название: Спуск Оригинальное название: The Descent Год выхода: 2005 Жанр: ужасы, драма Режиссер: Нил Маршалл В ролях: Шона МакДональд, Натали Джексон Мендоса, Алекс Рид, Саския Малдер, МайАнна Бёринг, Нора-Джейн Нун, Оливер Милберн, Молли Кейлл, Крэйг Конуэй, Лесли Симпсон О фильме: Компания смелых очаровательных девушек привыкла проводить свой отпуск в экстремальных путешествиях. На этот раз принято решение исследовать отдаленные горные хребты. Все идет неплохо до тех пор, пока они не находят загадочный грот. Какие тайны он хранит? Женское любопытство одерживает верх над осторожностью, и вот подруги уже глубоко под землёй. Внезапный камнепад замуровывает выход наверх, и герои вынуждены отправиться вглубь бесконечных тёмных катакомб в поисках спасения. Вскоре они выясняют, что мрак, холод, голод, отчаянье и страх — не единственные их попутчики в этом подземном путешествии. Грот оказывается населённым неизвестными кошмарными созданиями, которые не прочь познакомиться поближе… Долгожданный отпуск оборачивается леденящим душу ужасом, а загадочная пещера — склепом. Темнота и тишина…только слышно, как быстро бьётся твоё собственное сердце, охваченное первобытным страхом… Выпущено: Celador Films Продолжительность: 01:39:24 Перевод: Дублированный Файл Кодек: x264 Качество: BDRip (источник: Blu-ray Disc) Видео: 1920x816 (2,35:1), 24 fps, 5910 kbps Звук: 48 kHz, AC-3, 6 ch, 384 kbps Субтитры: Русские, Английские
[+] Скриншоты:
[+] MIОбщее Уникальный идентификатор : 233199140452694462812876379701939348094 (0xAF7085508C63575A87BA41CDE265227E) Полное имя : The.Descent.2005.BDRip.1080p.Rus.mkv Формат : Matroska Версия формата : Version 2 Размер файла : 4,37 Гбайт Продолжительность : 1 ч. 39 м. Общий поток : 6295 Кбит/сек Дата кодирования : UTC 2011-12-04 09:46:46 Программа кодирования : mkvmerge v4.0.0 ('The Stars were mine') сборка от Jun 6 2010 16:18:42 Библиотека кодирования : libebml v1.0.0 + libmatroska v1.0.0 Видео Идентификатор : 1 Формат : AVC Формат/Информация : Advanced Video Codec Профиль формата : High@L4.1 Параметр CABAC формата : Да Параметр ReFrames формата : 5 кадров Идентификатор кодека : V_MPEG4/ISO/AVC Продолжительность : 1 ч. 39 м. Битрейт : 5910 Кбит/сек Ширина : 1920 пикселей Высота : 816 пикселей Соотношение сторон : 2,35:1 Частота кадров : 24,000 кадра/сек Цветовое пространство : YUV Субдискретизация насыщенности : 4:2:0 Битовая глубина : 8 бит Тип развёртки : Прогрессивная Бит/(Пиксели*Кадры) : 0.157 Размер потока : 4,02 Гбайт (92%) Библиотека кодирования : x264 core 119 r2106 07efeb4 Настройки программы : cabac=1 / ref=5 / deblock=1:0:0 / analyse=0x3:0x133 / me=umh / subme=10 / psy=1 / psy_rd=1.00:0.10 / mixed_ref=1 / me_range=32 / chroma_me=1 / trellis=2 / 8x8dct=1 / cqm=0 / deadzone=21,11 / fast_pskip=0 / chroma_qp_offset=-3 / threads=12 / sliced_threads=0 / nr=0 / decimate=0 / interlaced=0 / bluray_compat=0 / constrained_intra=0 / bframes=3 / b_pyramid=2 / b_adapt=2 / b_bias=0 / direct=3 / weightb=1 / open_gop=0 / weightp=2 / keyint=240 / keyint_min=24 / scenecut=40 / intra_refresh=0 / rc_lookahead=60 / rc=2pass / mbtree=1 / bitrate=5910 / ratetol=1.0 / qcomp=0.60 / qpmin=0 / qpmax=69 / qpstep=4 / cplxblur=20.0 / qblur=0.5 / ip_ratio=1.40 / aq=1:1.00 Язык : English Аудио Идентификатор : 2 Формат : AC-3 Формат/Информация : Audio Coding 3 Расширение режима : CM (complete main) Идентификатор кодека : A_AC3 Продолжительность : 1 ч. 39 м. Вид битрейта : Постоянный Битрейт : 384 Кбит/сек Каналы : 6 каналов Расположение каналов : Front: L C R, Side: L R, LFE Частота : 48,0 КГц Битовая глубина : 16 бит Метод сжатия : С потерями Размер потока : 273 Мбайт (6%) Язык : Russian Текст #1 Идентификатор : 3 Формат : UTF-8 Идентификатор кодека : S_TEXT/UTF8 Идентификатор кодека/Информация : UTF-8 Plain Text Язык : Russian Текст #2 Идентификатор : 4 Формат : UTF-8 Идентификатор кодека : S_TEXT/UTF8 Идентификатор кодека/Информация : UTF-8 Plain Text Язык : English Меню 00:00:00.000 : :Chapter 01 00:06:01.833 : :Chapter 02 00:13:59.750 : :Chapter 03 00:21:13.166 : :Chapter 04 00:28:18.125 : :Chapter 05 00:34:45.250 : :Chapter 06 00:44:59.458 : :Chapter 07 00:54:41.583 : :Chapter 08 01:02:27.458 : :Chapter 09 01:13:24.791 : :Chapter 10 01:18:38.250 : :Chapter 11 01:24:35.041 : :Chapter 12 01:30:35.041 : :Chapter 13 01:35:07.708 : :Chapter 14

Всего файлов в раздаче: 1 
The.Descent.2005.BDRip.1080p.Rus.mkv4.37 GB

Похожие раздачи по запросу - Спуск
2024-04-21 magnet Спуск в бездну / Gueules noires / The Deep Dark (2023) HDRip-AVC от ExKinoRay | D 741.80 MB ↑ 0 ↓ 0
2024-04-19 magnet Спуск в бездну / Gueules noires / The Deep Dark (2023) BDRip 1080p от селезень | D | KION 8.16 GB ↑ 0 ↓ 0
2024-04-19 magnet Спуск в бездну / Gueules noires / The Deep Dark (2023) BDRip-AVC от DoMiNo & селезень | D 1.45 GB ↑ 0 ↓ 0
2024-04-19 magnet Спуск в бездну / Gueules noires / The Deep Dark (2023) BDRip-AVC от New-Team | D 2.17 GB ↑ 0 ↓ 0
2024-04-19 magnet Спуск в бездну / Gueules noires (2023) BDRemux 1080p | D 24.71 GB ↑ 0 ↓ 0
2024-04-19 magnet Спуск в бездну / Gueules noires (2023) BDRip 1080p от EniaHD | D 15.28 GB ↑ 0 ↓ 0
2024-04-19 magnet Спуск в бездну / Gueules noires (2023) BDRip 720p от DoMiNo & селезень | D 5.34 GB ↑ 0 ↓ 0

Комментарии


Зарегистрируйтесь чтобы добавить комментарий
Торрент клиент
byTorrent - программа для загрузки торрент-файлов.

Скачать byTorrent.exe (1,5 МБ)

Скачать byTorrent.zip (0,6 МБ)

Поддержи torrent.by
российских рублей
(300 российских рублей это 4$)

Обратная связь rss

End game ©