↑↓torrent.by
Поиск
Логин:  Регистрация
Пароль:

Мадам Паутина / Madame Web (2024) BDRip от New-Team | D

download Скачать торрент-файл   magnet Магнитная ссылка Размер: 1.46 GB Добавлен: 2024-04-28 05:00
Пиры будут получены из сети DHT
Последний сидер был замечен 2024-05-09 21:33
Мадам Паутина / Madame Web Год выпуска: 2024 Выпущено: США, Канада, Мексика / Columbia Pictures Corporation, Di Bonaventura Pictures, Marvel Entertainment Жанр: Фантастика, боевик, приключения Режиссер: С.Дж. Кларксон / S.J. Clarkson В ролях: Дакота Джонсон, Сидни Суини, Изабела Мерсед, Селеста О’Коннор, Тахар Рахим, Майк Эппс, Эмма Робертс, Адам Скотт, Керри Бише, Заша Мэмет, Хосе Мария Яспик, Кэти-Энн Харт, Джош Дреннен, Остин Дж. Райан О фильме: Медсестра из Манхэттена Кассандра Уэбб открывает в себе способность видеть будущее и понимает, что может использовать эту силу, чтобы его изменить. Столкнувшись с тайнами своего прошлого, Кассандра знакомится с тремя девушками, которым суждено однажды стать великими, если они вместе смогут пережить смертельно опасное настоящее. Продолжительность: 01:56:12 Перевод: Профессиональный (полное дублирование) | MovieDalen Субтитры: Русские (forced, full), английские (SDH), Раздача от: Автор релиза: JNS82. Формат: AVI Качество: BDRip | Madame Web 2024 BluRay 1080p MULTi REMUX AVC DTS-HD MA 5 1-LEGi0N Видео: 720x304 (2.35:1), 23.976 fps, XviD MPEG-4 ~ 1409 kbps avg, 0.268 bit/pixel, build 74 Аудио: 48 kHz, AC3 Dolby Digital, 3/2 (L,C,R,l,r) + LFE ch, ~ 384 kbps | RUS |
[+] MediaInfoОбщее Полное имя : D:TorrentsMadame.Web.2024.BDRip.1.46.gb_от New-Team_by_JNS82Madame.Web.2024.BDRip.1.46.gb_от New-Team_by_JNS82.avi Формат : AVI Формат/Информация : Audio Video Interleave Настройки формата : WaveFormatEx Размер файла : 1,46 Гбайт Продолжительность : 1 ч. 56 мин. Общий битрейт : 1 802 Кбит/сек Частота кадров : 23,976 кадра/сек Программа кодирования : VirtualDubMod 1.5.10.2 (build 2540/release) Библиотека кодирования : VirtualDubMod build 2540/release Видео Идентификатор : 0 Формат : MPEG-4 Visual Профиль формата : Advanced Simple@L5 Настройки формата : BVOP1 / Custom Matrix Параметр BVOP формата : 1 Параметр QPel формата : Нет Параметр GMC формата : Без точки перехода Параметр Matrix формата : Выборочная Идентификатор кодека : XVID Идентификатор кодека/Подсказка : XviD Продолжительность : 1 ч. 56 мин. Битрейт : 1 409 Кбит/сек Ширина : 720 пикселей Высота : 304 пикселя Соотношение сторон дисплея : 2,35:1 Частота кадров : 23,976 (24000/1001) кадра/сек Цветовое пространство : YUV Цветовая субдискретизация : 4:2:0 Битовая глубина : 8 бит Тип развёртки : Прогрессивная Метод сжатия : С потерями Бит/(Пиксели*Кадры) : 0.268 Размер потока : 1,14 Гбайт (78%) Библиотека кодирования : XviD 74 Аудио Идентификатор : 1 Формат : AC-3 Формат/Информация : Audio Coding 3 Коммерческое название : Dolby Digital Идентификатор кодека : 2000 Продолжительность : 1 ч. 56 мин. Вид битрейта : Постоянный Битрейт : 384 Кбит/сек Канал(-ы) : 6 каналов Расположение каналов : L R C LFE Ls Rs Частота дискретизации : 48,0 КГц Частота кадров : 31,250 кадров/сек (1536 SPF) Метод сжатия : С потерями Размер потока : 319 Мбайт (21%) Выравнивание : Разделение по промежуткам Чередование, продолжительность : 42 мс. (1,00 видеокадр) Чередование, продолжительность пред.загр : 500 мс. Вид сервиса : Complete Main Нормализация звука речи : -31 dB cmixlev : -4.5 dB surmixlev : -6 dB dialnorm_Average : -31 dB dialnorm_Minimum : -31 dB dialnorm_Maximum : -31 dB

Всего файлов в раздаче: 4 
Madame.Web.2024.BDRip.1.46.gb_от New-Team_by_JNS82.avi1.46 GB
Madame.Web.2024.BDRip.1.46.gb_от New-Team_by_JNS82_[eng].srt128.67 kB
Madame.Web.2024.BDRip.1.46.gb_от New-Team_by_JNS82_forced_[rus].srt2.29 kB
Madame.Web.2024.BDRip.1.46.gb_от New-Team_by_JNS82_full_[rus].srt136.37 kB

Похожие раздачи по запросу - Мадам
2024-05-12 magnet Мадам Паутина / Madame Web (2024) BDRip 1080p от селезень | D, P, P2 9.20 GB ↑ 0 ↓ 0
2024-04-29 magnet Мадам Паутина / Madame Web (2024) BDRip 1080p от New-Team | D 9.08 GB ↑ 0 ↓ 0
2024-04-28 magnet Мадам Паутина / Madame Web (2024) BDRip 720p от DoMiNo & селезень | D | MovieDalen 4.46 GB ↑ 0 ↓ 0
2024-04-28 magnet Мадам Паутина / Madame Web (2024) BDRip-AVC от DoMiNo & селезень | D | MovieDalen 1.97 GB ↑ 0 ↓ 1
2024-04-27 magnet Мадам Паутина / Madame Web (2024) BDRip от New-Team | D 2.18 GB ↑ 0 ↓ 0
2024-04-08 magnet Мадам Паутина / Мадам Павутина / Madame Web (2024) WEB-DL 1080p | D | UKR 7.92 GB ↑ 0 ↓ 0
2024-04-03 magnet Мадам Паутина / Madame Web (2024) WEB-DLRip от toxics & селезень | D 1.46 GB ↑ 0 ↓ 0

Комментарии


Зарегистрируйтесь чтобы добавить комментарий
Торрент клиент
byTorrent - программа для загрузки торрент-файлов.

Скачать byTorrent.exe (1,5 МБ)

Скачать byTorrent.zip (0,6 МБ)

Поддержи torrent.by
российских рублей
(300 российских рублей это 4$)

Обратная связь rss

End game ©