↑↓torrent.by
Поиск
Логин:  Регистрация
Пароль:

Мятежная Луна, часть 2: Оставляющая шрамы / Rebel Moon - Part Two: The Scargiver (2024) WEB-DL 1080p от EniaHD | D, P, P2, L

download Скачать торрент-файл   magnet Магнитная ссылка Размер: 7.79 GB Раздают: 1 Качают: 0 Добавлен: 2024-04-28 05:00
Пиры будут получены из сети DHT
Последний сидер был замечен сегодня в 12:15
Мятежная Луна, часть 2: Оставляющая шрамы Rebel Moon - Part Two: The Scargiver Страна: США Бюджет: $166 000 000 Жанр: фантастика, боевик, драма Год выпуска: 2024 Продолжительность: 02:03:54 Перевод 1: Профессиональный (многоголосый закадровый) - Jaskier Перевод 2: Профессиональный (многоголосый закадровый) - LostFilm Перевод 3: Дублированный (неофициальный) - HDrezka Studio Перевод 4: Любительский (многоголосый закадровый) - Voice Project Studio Перевод 5: Профессиональный (двухголосый закадровый) - ViruseProject Перевод 6 (украинский): Дублированный (официальный) - Postmodern Субтитры: русские, английские (SDH), французские, немецкие, иврит, итальянские, португальские, румынские, испанские, украинские (Forced, Full) Режиссер: Зак Снайдер / Zack Snyder В ролях: Эд Скрейн, София Бутелла, Чарли Ханнэм, Джена Мэлоун, Энтони Хопкинс, Кэри Элвес, Джимон Хонсу, Михил Хёйсман, Стюарт Мартин, Пэ Ду-на, Кори Столл, Стаз Нэйр, Рэй Фишер, Клеопатра Коулмэн, Фра Фи Описание: Вернувшись на Велдт, Кора с отрядом наёмников и местными крестьянами готовится дать бой превосходящим силам агрессоров под предводительством адмирала Нобла. Тип релиза: WEB-DL 1080p | NETFLIX Контейнер: MKV Видео: MPEG-4 AVC, 1920x1080 (16:9), 24 fps, 5000 kbps Аудио 1: RUS E-AC-3 JOC, 5.1, 48 kHz, 768 kbps - MVO (Jaskier) Аудио 2: RUS AC-3, 2.0, 48 kHz, 384 kbps - MVO (LostFilm) Аудио 3: RUS AAC, 2.0, 48 kHz, 192 kbps - DUB (HDrezka Studio) Аудио 4: RUS AC-3, 5.1, 48 kHz, 640 kbps - MVO (Voice Project Studio) Аудио 5: RUS AC-3, 5.1, 48 kHz, 640 kbps - DVO (ViruseProject) Аудио 6: UKR E-AC-3 JOC, 5.1, 48 kHz, 768 kbps - DUB (Postmodern) Аудио 7: ENG E-AC-3 JOC, 5.1, 48 kHz, 768 kbps Формат субтитров: softsub (SRT) ЦитатаКто-то писал: • Дорожка №1 получена путём наложения чистых голосов на центр декодированного оригинала. Работа со звуком - Belshaman. Спасибо студии Jaskier и FredDie Bulsara за предоставленные голоса. • За дорожку №4 спасибо студии Voice Project Studio
[+] MediaInfoGeneral Unique ID : 102830699252723150752227513387522273538 (0x4D5C78E7F3C3B375FA03F45F6F693102) Complete name : Rebel.Moon.Part.Two.The.Scargiver.2024.1080p.NF.WEB-DL.H.264-EniaHD.mkv Format : Matroska Format version : Version 4 File size : 7.79 GiB Duration : 2 h 4 min Overall bit rate mode : Variable Overall bit rate : 8 980 kb/s Frame rate : 24.000 FPS Movie name : Rebel Moon - Part Two: The Scargiver (2024) - EniaHD Writing application : mkvmerge v57.0.0 ('Till The End') 64-bit Writing library : libebml v1.4.2 + libmatroska v1.6.4 Video ID : 1 Format : AVC Format/Info : Advanced Video Codec Format profile : Main@L4 Format settings : CABAC / 3 Ref Frames Format settings, CABAC : Yes Format settings, Reference fra : 3 frames Codec ID : V_MPEG4/ISO/AVC Duration : 2 h 3 min Bit rate mode : Variable Bit rate : 5 000 kb/s Maximum bit rate : 7 500 kb/s Width : 1 920 pixels Height : 1 080 pixels Display aspect ratio : 16:9 Frame rate mode : Constant Frame rate : 24.000 FPS Color space : YUV Chroma subsampling : 4:2:0 Bit depth : 8 bits Scan type : Progressive Bits/(Pixel*Frame) : 0.100 Stream size : 4.19 GiB (54%) Writing library : x264 core 148 r2727 7d026e8 Encoding settings : cabac=1 / ref=3 / deblock=1:0:0 / analyse=0x1:0x111 / me=umh / subme=10 / psy=1 / psy_rd=1.00:0.00 / mixed_ref=1 / me_range=24 / chroma_me=1 / trellis=2 / 8x8dct=0 / cqm=0 / deadzone=21,11 / fast_pskip=1 / chroma_qp_offset=-2 / threads=6 / lookahead_threads=1 / sliced_threads=0 / nr=0 / decimate=1 / interlaced=0 / bluray_compat=0 / stitchable=1 / constrained_intra=0 / bframes=2 / b_pyramid=0 / b_adapt=2 / b_bias=0 / direct=3 / weightb=1 / open_gop=0 / weightp=2 / keyint=240 / keyint_min=121 / scenecut=0 / intra_refresh=0 / rc_lookahead=48 / rc=2pass / mbtree=1 / bitrate=5000 / ratetol=1.0 / qcomp=0.50 / qpmin=6 / qpmax=51 / qpstep=4 / cplxblur=20.0 / qblur=0.5 / vbv_maxrate=7500 / vbv_bufsize=10000 / nal_hrd=vbr / filler=0 / ip_ratio=1.40 / aq=1:1.00 Default : Yes Forced : No Audio #1 ID : 2 Format : E-AC-3 JOC Format/Info : Enhanced AC-3 with Joint Object Coding Commercial name : Dolby Digital Plus with Dolby Atmos Codec ID : A_EAC3 Duration : 2 h 3 min Bit rate mode : Constant Bit rate : 768 kb/s Channel(s) : 6 channels Channel layout : L R C LFE Ls Rs Sampling rate : 48.0 kHz Frame rate : 31.250 FPS (1536 SPF) Compression mode : Lossy Stream size : 681 MiB (9%) Title : Jaskier Language : Russian Service kind : Complete Main Default : Yes Forced : No Complexity index : 16 Number of dynamic objects : 15 Bed channel count : 1 channel Bed channel configuration : LFE Audio #2 ID : 3 Format : AC-3 Format/Info : Audio Coding 3 Commercial name : Dolby Digital Codec ID : A_AC3 Duration : 2 h 3 min Bit rate mode : Constant Bit rate : 384 kb/s Channel(s) : 2 channels Channel layout : L R Sampling rate : 48.0 kHz Frame rate : 31.250 FPS (1536 SPF) Compression mode : Lossy Stream size : 340 MiB (4%) Title : LostFilm Language : Russian Service kind : Complete Main Default : No Forced : No Audio #3 ID : 4 Format : AAC LC Format/Info : Advanced Audio Codec Low Complexity Codec ID : A_AAC-2 Duration : 2 h 3 min Bit rate : 192 kb/s Channel(s) : 2 channels Channel layout : L R Sampling rate : 48.0 kHz Frame rate : 46.875 FPS (1024 SPF) Compression mode : Lossy Stream size : 171 MiB (2%) Title : HDrezka Studio Language : Russian Default : No Forced : No Audio #4 ID : 5 Format : AC-3 Format/Info : Audio Coding 3 Commercial name : Dolby Digital Codec ID : A_AC3 Duration : 2 h 4 min Bit rate mode : Constant Bit rate : 640 kb/s Channel(s) : 6 channels Channel layout : L R C LFE Ls Rs Sampling rate : 48.0 kHz Frame rate : 31.250 FPS (1536 SPF) Compression mode : Lossy Stream size : 569 MiB (7%) Title : Voice Project Studio Language : Russian Service kind : Complete Main Default : No Forced : No Audio #5 ID : 6 Format : AC-3 Format/Info : Audio Coding 3 Commercial name : Dolby Digital Codec ID : A_AC3 Duration : 2 h 3 min Bit rate mode : Constant Bit rate : 640 kb/s Channel(s) : 6 channels Channel layout : L R C LFE Ls Rs Sampling rate : 48.0 kHz Frame rate : 31.250 FPS (1536 SPF) Compression mode : Lossy Stream size : 567 MiB (7%) Title : ViruseProject Language : Russian Service kind : Complete Main Default : No Forced : No Audio #6 ID : 7 Format : E-AC-3 JOC Format/Info : Enhanced AC-3 with Joint Object Coding Commercial name : Dolby Digital Plus with Dolby Atmos Codec ID : A_EAC3 Duration : 2 h 3 min Bit rate mode : Constant Bit rate : 768 kb/s Channel(s) : 6 channels Channel layout : L R C LFE Ls Rs Sampling rate : 48.0 kHz Frame rate : 31.250 FPS (1536 SPF) Compression mode : Lossy Stream size : 681 MiB (9%) Title : Postmodern Language : Ukrainian Service kind : Complete Main Default : No Forced : No Complexity index : 16 Number of dynamic objects : 15 Bed channel count : 1 channel Bed channel configuration : LFE Audio #7 ID : 8 Format : E-AC-3 JOC Format/Info : Enhanced AC-3 with Joint Object Coding Commercial name : Dolby Digital Plus with Dolby Atmos Codec ID : A_EAC3 Duration : 2 h 3 min Bit rate mode : Constant Bit rate : 768 kb/s Channel(s) : 6 channels Channel layout : L R C LFE Ls Rs Sampling rate : 48.0 kHz Frame rate : 31.250 FPS (1536 SPF) Compression mode : Lossy Stream size : 681 MiB (9%) Title : English Language : English Service kind : Complete Main Default : No Forced : No Complexity index : 16 Number of dynamic objects : 15 Bed channel count : 1 channel Bed channel configuration : LFE Text #1 ID : 9 Format : UTF-8 Codec ID : S_TEXT/UTF8 Codec ID/Info : UTF-8 Plain Text Duration : 2 h 0 min Bit rate : 47 b/s Frame rate : 0.118 FPS Count of elements : 858 Stream size : 42.2 KiB (0%) Title : Russian Language : Russian Default : No Forced : No Text #2 ID : 10 Format : UTF-8 Codec ID : S_TEXT/UTF8 Codec ID/Info : UTF-8 Plain Text Duration : 1 h 59 min Bit rate : 45 b/s Frame rate : 0.192 FPS Count of elements : 1379 Stream size : 39.9 KiB (0%) Title : English (SDH) Language : English Default : No Forced : No Text #3 ID : 11 Format : UTF-8 Codec ID : S_TEXT/UTF8 Codec ID/Info : UTF-8 Plain Text Duration : 1 h 59 min Bit rate : 50 b/s Frame rate : 0.212 FPS Count of elements : 1520 Stream size : 44.5 KiB (0%) Title : French (SDH) Language : French Default : No Forced : No Text #4 ID : 12 Format : UTF-8 Codec ID : S_TEXT/UTF8 Codec ID/Info : UTF-8 Plain Text Duration : 1 h 59 min Bit rate : 49 b/s Frame rate : 0.203 FPS Count of elements : 1459 Stream size : 43.5 KiB (0%) Title : German (SDH) Language : German Default : No Forced : No Text #5 ID : 13 Format : UTF-8 Codec ID : S_TEXT/UTF8 Codec ID/Info : UTF-8 Plain Text Duration : 2 h 0 min Bit rate : 44 b/s Frame rate : 0.118 FPS Count of elements : 854 Stream size : 39.8 KiB (0%) Title : Hebrew Language : Hebrew Default : No Forced : No Text #6 ID : 14 Format : UTF-8 Codec ID : S_TEXT/UTF8 Codec ID/Info : UTF-8 Plain Text Duration : 1 h 59 min Bit rate : 40 b/s Frame rate : 0.169 FPS Count of elements : 1215 Stream size : 35.9 KiB (0%) Title : Italian (SDH) Language : Italian Default : No Forced : No Text #7 ID : 15 Format : UTF-8 Codec ID : S_TEXT/UTF8 Codec ID/Info : UTF-8 Plain Text Duration : 2 h 0 min Bit rate : 41 b/s Frame rate : 0.175 FPS Count of elements : 1263 Stream size : 36.6 KiB (0%) Title : Portuguese (SDH) Language : Portuguese (BR) Default : No Forced : No Text #8 ID : 16 Format : UTF-8 Codec ID : S_TEXT/UTF8 Codec ID/Info : UTF-8 Plain Text Duration : 2 h 0 min Bit rate : 30 b/s Frame rate : 0.116 FPS Count of elements : 840 Stream size : 26.7 KiB (0%) Title : Romanian Language : Romanian Default : No Forced : No Text #9 ID : 17 Format : UTF-8 Codec ID : S_TEXT/UTF8 Codec ID/Info : UTF-8 Plain Text Duration : 1 h 52 min Bit rate : 42 b/s Frame rate : 0.175 FPS Count of elements : 1180 Stream size : 35.3 KiB (0%) Title : Spanish (SDH) Language : Spanish (Latin America) Default : No Forced : No Text #10 ID : 18 Format : UTF-8 Codec ID : S_TEXT/UTF8 Codec ID/Info : UTF-8 Plain Text Duration : 2 h 0 min Bit rate : 49 b/s Frame rate : 0.117 FPS Count of elements : 850 Stream size : 43.8 KiB (0%) Title : Ukrainian Language : Ukrainian Default : No Forced : No Text #11 ID : 19 Format : UTF-8 Codec ID : S_TEXT/UTF8 Codec ID/Info : UTF-8 Plain Text Duration : 1 h 52 min Bit rate : 0 b/s Frame rate : 0.000 FPS Count of elements : 3 Stream size : 121 Bytes (0%) Title : Ukrainian (Forced) Language : Ukrainian Default : No Forced : No Menu 00:00:00.000 : en:Chapter 01 01:54:05.000 : en:Credits
[+] Скриншоты

Всего файлов в раздаче: 1 
Rebel.Moon.Part.Two.The.Scargiver.2024.1080p.NF.WEB-DL.H.264-EniaHD.mkv7.79 GB

Похожие раздачи по запросу - Мятежная
Сегодня magnet Мятежная Луна, часть 2: Оставляющая шрамы / Rebel Moon - Part Two: The Scargiver (2024) WEB-DL-HEVC 2160p | 4K | SDR | D, P, P2 17.16 GB ↑ 0 ↓ 0
2024-05-03 magnet Мятежная Луна, часть 2: Оставляющая шрамы / Rebel Moon - Part Two: The Scargiver (2024) WEB-DL HEVC 2160p | 4K | HDR | Dolby Vision Profile 8 | D 11.25 GB ↑ 0 ↓ 0
2024-04-29 magnet Мятежная Луна, часть 2: Оставляющая шрамы / Rebel Moon - Part Two: The Scargiver (2024) WEB-DL 1080p от New-Team | D, P 6.30 GB ↑ 0 ↓ 2
2024-04-29 magnet Мятежная Луна, часть 2: Оставляющая шрамы / Rebel Moon - Part Two: The Scargiver (2024) WEB-DLRip 720p от DoMiNo & селезень | D, P, P2 4.39 GB ↑ 0 ↓ 0
2024-04-28 magnet Мятежная Луна, часть 2: Оставляющая шрамы / Rebel Moon - Part Two: The Scargiver (2024) WEB-DLRip 720p от DoMiNo & селезень | D, P, P2 3.78 GB ↑ 0 ↓ 0
2024-04-24 magnet Мятежная Луна, часть 2: Дарующая шрамы / Rebel Moon. Частина 2: Та, що лишає шрами / Rebel Moon - Part Two: The Scargiver (2024) WEB-DL-HEVC 2160p | 4K | HDR | Dolby Vision Profile 8 | D | Netflix | UKR 11.75 GB ↑ 0 ↓ 0
2024-04-23 magnet Мятежная Луна, часть 2: Оставляющая шрамы / Rebel Moon - Part Two: The Scargiver (2024) WEB-DL-HEVC 2160p | 4K | HDR | P, P2 12.50 GB ↑ 2 ↓ 0

Кто качает (только для создателя раздачи и модераторов):
ПользовательIP:портОтдалПринялОстатокСидируетТоррент клиентОбновился
1 Аноним 195.246.106.22:51413 3.97 GB 7.79 GB 0.00 B да -TR2920- 12:15 2024-05-24

Комментарии


Зарегистрируйтесь чтобы добавить комментарий
Торрент клиент
byTorrent - программа для загрузки торрент-файлов.

Скачать byTorrent.exe (1,5 МБ)

Скачать byTorrent.zip (0,6 МБ)

Поддержи torrent.by
российских рублей
(300 российских рублей это 4$)

Обратная связь rss

End game ©