↑↓torrent.by
Поиск
Логин:  Регистрация
Пароль:

Мера человека / Measure of a Man (2018) WEB-DL 1080p | HDRezka Studio

download Скачать торрент-файл   magnet Магнитная ссылка Размер: 6.78 GB Добавлен: 2024-04-28 11:00
Пиры будут получены из сети DHT
Последний сидер был замечен 2024-04-28 11:00
Информация о фильме Название: Мера человека Оригинальное название: Measure of a Man Год выхода: 2018 Жанр: Драма, комедия Режиссер: Джим Лоуч В ролях: Блейк Купер, Дональд Сазерленд, Люк Уилсон, Лиана Либерато, Джуди Грир, Даниэль Роуз Расселл, Люк Бенвард, Бо Напп, Сэм Кили, Райан Бодро О фильме: История взросления запуганного толстячка-подростка Бобби, который за одно лето учится мужеству и самоуважению. Тяжёлая подработка, семейный разлад, издевательство хулиганов и расставание с подругой подводят Бобби к первому взрослому решению — пора менять свою жизнь. Страна: США Студия: Taylor Lane Productions, Weedon Media Продолжительность: 01:40:05 Перевод: Профессиональный многоголосый | HDRezka Studio Файл Формат: MKV Качество: WEB-DL 1080p Видео: MPEG-4 AVC, 1920x800 (2.40:1), 23.976 fps, ~ 8610 kbps Аудио 1: Russian: 48 kHz, AC-3, 3/2 (L,C,R,l,r) + LFE ch, ~ 448 kbps Аудио 2: English: 48 kHz, E-AC3, 3/2 (L,C,R,l,r) + LFE ch, ~ 640 kbps Субтитры: Английские (Full), испанские
[+] Скриншоты
[+] Инфо-файлGeneral Unique ID : 76195162866757424179357365975734212872 (0x3952A79270C61D45B4AD161D4F5ED908) Complete name : Measure.Of.A.Man.2018.AMZN.WEB-DL.1080p.mkv Format : Matroska Format version : Version 4 File size : 6.78 GiB Duration : 1 h 40 min Overall bit rate : 9 700 kb/s Encoded date : UTC 2024-04-24 05:43:57 Writing application : mkvmerge v20.0.0 ('I Am The Sun') 64-bit Writing library : libebml v1.3.5 + libmatroska v1.4.8 Video ID : 1 Format : AVC Format/Info : Advanced Video Codec Format profile : High@L4 Format settings : CABAC / 4 Ref Frames Format settings, CABAC : Yes Format settings, Reference frames : 4 frames Codec ID : V_MPEG4/ISO/AVC Duration : 1 h 40 min Bit rate mode : Constant Bit rate : 8 610 kb/s Nominal bit rate : 10 000 kb/s Width : 1 920 pixels Height : 800 pixels Display aspect ratio : 2.40:1 Frame rate mode : Constant Frame rate : 23.976 (24000/1001) FPS Color space : YUV Chroma subsampling : 4:2:0 Bit depth : 8 bits Scan type : Progressive Bits/(Pixel*Frame) : 0.234 Stream size : 6.02 GiB (89%) Language : English Default : Yes Forced : No Color range : Limited Color primaries : BT.709 Transfer characteristics : BT.709 Matrix coefficients : BT.709 Audio #1 ID : 2 Format : AC-3 Format/Info : Audio Coding 3 Commercial name : Dolby Digital Codec ID : A_AC3 Duration : 1 h 40 min Bit rate mode : Constant Bit rate : 448 kb/s Channel(s) : 6 channels Channel layout : L R C LFE Ls Rs Sampling rate : 48.0 kHz Frame rate : 31.250 FPS (1536 SPF) Compression mode : Lossy Stream size : 321 MiB (5%) Title : MVO HDRezka Studio Language : Russian Service kind : Complete Main Default : Yes Forced : No Audio #2 ID : 3 Format : E-AC-3 Format/Info : Enhanced AC-3 Commercial name : Dolby Digital Plus Codec ID : A_EAC3 Duration : 1 h 40 min Bit rate mode : Constant Bit rate : 640 kb/s Channel(s) : 6 channels Channel layout : L R C LFE Ls Rs Sampling rate : 48.0 kHz Frame rate : 31.250 FPS (1536 SPF) Compression mode : Lossy Stream size : 458 MiB (7%) Language : English Service kind : Complete Main Default : No Forced : No Text #1 ID : 4 Format : UTF-8 Codec ID : S_TEXT/UTF8 Codec ID/Info : UTF-8 Plain Text Duration : 1 h 32 min Bit rate : 53 b/s Count of elements : 1177 Stream size : 36.7 KiB (0%) Language : English Default : No Forced : No Text #2 ID : 5 Format : UTF-8 Codec ID : S_TEXT/UTF8 Codec ID/Info : UTF-8 Plain Text Duration : 1 h 32 min Bit rate : 47 b/s Count of elements : 1191 Stream size : 32.3 KiB (0%) Language : Spanish Default : No Forced : No

Всего файлов в раздаче: 1 
Measure.Of.A.Man.2018.AMZN.WEB-DL.1080p.mkv6.78 GB

Кто качает (только для создателя раздачи и модераторов): Локальные пиры отсутствуют

Комментарии


Зарегистрируйтесь чтобы добавить комментарий
Торрент клиент
byTorrent - программа для загрузки торрент-файлов.

Скачать byTorrent.exe (1,5 МБ)

Скачать byTorrent.zip (0,6 МБ)

Поддержи torrent.by
российских рублей
(300 российских рублей это 4$)

Обратная связь rss

End game ©