↑↓torrent.by
Поиск
Логин:  Регистрация
Пароль:

Пошли в тюрьму / Let's Go to Prison (2006) WEB-DLRip 720p от DoMiNo | D, P

download Скачать торрент-файл   magnet Магнитная ссылка Размер: 3.88 GB Добавлен: 2024-04-28 11:00
Пиры будут получены из сети DHT
Последний сидер был замечен 2024-04-28 16:14
Информация о фильме Название: Пошли в тюрьму Оригинальное название: Let's Go to Prison Год выхода: 2006 Жанр: Комедия, криминал Режиссер: Боб Оденкёрк В ролях: Дакс Шепард, Уилл Арнетт, Чи МакБрайд, Дэвид Кехнер, Дилан Бейкер, Мигель Нино, Джэй Уиттакер, Эми Хилл, Дэвид Дарлоу, Джерри Майнор, Мэри Сейбл, Сьюзен Мессинг, Джим Зулевич, Боб Оденкёрк, Берт Матиас, Джордан Теплиц, Ричард Булл, Марк Мореттини, Лу Джонсон, Натан Дэвис, Ларри Нойманн-мл., Рэмсес Хименес, Эллис Фостер, Мэнни Соса, Рич Уилки, Джо Нунес, Клаудия Мишель Уоллас, Арраон Скиппа Хиксон, Крэйг Дж. Харрис, Мик Напьер, Майкл Хичкок, Роберт Гердиш О фильме: Неисправимый хулиган Джон Лишицки впервые попал в тюрьму еще в юном возрасте. С тех пор он гораздо больше времени провел за решеткой, чем на свободе. Во всех своих бедах Джон, впрочем, винит не себя, а американскую пенитенциарную систему и конкретно судью Нельсона Бидермана - третьего. Чтобы отомстить заклятому врагу, он подставил судейского сыночка, Нельсона Бидермана-четвертого, и отправился в тюрьму вместе с ним. Чтобы лично понаблюдать, как холеный аристократ на своей шкуре испытает все прелести заключения сроком от трех до пяти... Страна: США Студия: Universal Pictures, Carsey Werner Films Продолжительность: 01:29:16 Перевод: Дублированный, профессиональный многоголосый Субтитры: English Файл Формат: Matroska Качество: WEB-DLRip 720p | AMZN | *STARZ* Видео: 1280x720 at 23.976 fps, x264@L4.1, ~5132 kbps, 0.232 bpp Аудио #1: Русский (AC3, 6 ch, 448 Кбит/с) Дублированный (студия «Пифагор» по заказу компании Universal) Аудио #2: Русский (AC3, 2 ch, 192 Кбит/с) Профессиональный многоголосый Аудио #3: Английский (AC3, 6 ch, 448 Кбит/с) Оригинал ***Релиз от: -=DoMiNo=-
[+] M/Ix264 : frame I:983 Avg QP:16.59 size:123307 x264 : frame P:28681 Avg QP:18.10 size: 50385 x264 : frame B:98765 Avg QP:20.44 size: 18935 x264 : consecutive B-frames: 1.6% 2.2% 6.3% 36.8% 15.6% 29.4% 4.9% 2.2% 0.8% 0.2% General Format : Matroska Format version : Version 4 File size : 3.88 GiB Duration : 1 h 29 min Overall bit rate : 6 223 kb/s Movie name : Пошли в тюрьму.(2006).WEB-DLRip.720p. / Пошли в тюрьму / Let's Go to Prison (2006) Encoded date : UTC 2020-09-04 06:28:00 Writing application : mkvmerge v49.0.0 ('Sick Of Losing Soulmates') 64-bit Writing library : libebml v1.4.0 + libmatroska v1.6.1 Cover : Yes Attachments : Cover.jpg / Cover 2.jpg Video ID : 1 Format : AVC Format/Info : Advanced Video Codec Format profile : High@L4.1 Format settings : CABAC / 9 Ref Frames Format settings, CABAC : Yes Format settings, Reference : 9 frames Codec ID : V_MPEG4/ISO/AVC Duration : 1 h 29 min Bit rate : 5 132 kb/s Width : 1 280 pixels Height : 720 pixels Display aspect ratio : 16:9 Frame rate mode : Constant Frame rate : 23.976 (24000/1001) FPS Color space : YUV Chroma subsampling : 4:2:0 Bit depth : 8 bits Scan type : Progressive Bits/(Pixel*Frame) : 0.232 Stream size : 3.20 GiB (82%) Title : -=DoMiNo=- Writing library : x264 core 161 r3018 db0d417 Encoding settings : cabac=1 / ref=9 / deblock=1:-3:-3 / analyse=0x3:0x133 / me=umh / subme=10 / psy=1 / psy_rd=1.00:0.00 / mixed_ref=1 / me_range=32 / chroma_me=1 / trellis=2 / 8x8dct=1 / cqm=0 / deadzone=21,11 / fast_pskip=0 / chroma_qp_offset=-2 / threads=6 / lookahead_threads=1 / sliced_threads=0 / nr=0 / decimate=1 / interlaced=0 / bluray_compat=0 / constrained_intra=0 / bframes=9 / b_pyramid=2 / b_adapt=2 / b_bias=0 / direct=1 / weightb=1 / open_gop=0 / weightp=2 / keyint=250 / keyint_min=23 / scenecut=40 / intra_refresh=0 / rc_lookahead=60 / rc=crf / mbtree=0 / crf=18.0 / qcomp=0.60 / qpmin=0 / qpmax=69 / qpstep=4 / vbv_maxrate=50000 / vbv_bufsize=62500 / crf_max=0.0 / nal_hrd=none / filler=0 / ip_ratio=1.40 / pb_ratio=1.30 / aq=3:0.80 Language : English Default : Yes Forced : No Color range : Limited Color primaries : BT.709 Transfer characteristics : BT.709 Matrix coefficients : BT.709 Audio #1 ID : 2 Format : AC-3 Format/Info : Audio Coding 3 Commercial name : Dolby Digital Codec ID : A_AC3 Duration : 1 h 29 min Bit rate mode : Constant Bit rate : 448 kb/s Channel(s) : 6 channels Channel layout : L R C LFE Ls Rs Sampling rate : 48.0 kHz Frame rate : 31.250 FPS (1536 SPF) Compression mode : Lossy Stream size : 286 MiB (7%) Title : DUB Language : Russian Service kind : Complete Main Default : Yes Forced : No Audio #2 ID : 3 Format : AC-3 Format/Info : Audio Coding 3 Commercial name : Dolby Digital Codec ID : A_AC3 Duration : 1 h 29 min Bit rate mode : Constant Bit rate : 192 kb/s Channel(s) : 2 channels Channel layout : L R Sampling rate : 48.0 kHz Frame rate : 31.250 FPS (1536 SPF) Compression mode : Lossy Stream size : 123 MiB (3%) Title : MVO Language : Russian Service kind : Complete Main Default : No Forced : No Audio #3 ID : 4 Format : AC-3 Format/Info : Audio Coding 3 Commercial name : Dolby Digital Codec ID : A_AC3 Duration : 1 h 29 min Bit rate mode : Constant Bit rate : 448 kb/s Channel(s) : 6 channels Channel layout : L R C LFE Ls Rs Sampling rate : 48.0 kHz Frame rate : 31.250 FPS (1536 SPF) Compression mode : Lossy Stream size : 286 MiB (7%) Language : English Service kind : Complete Main Default : No Forced : No Text ID : 5 Format : UTF-8 Codec ID : S_TEXT/UTF8 Codec ID/Info : UTF-8 Plain Text Duration : 1 h 24 min Bit rate : 67 b/s Count of elements : 1171 Stream size : 41.8 KiB (0%) Language : English Default : No Forced : No Menu 00:00:00.000 : :Глава 01 00:05:30.000 : :Глава 02 00:11:00.000 : :Глава 03 00:16:30.000 : :Глава 04 00:22:00.000 : :Глава 05 00:27:30.000 : :Глава 06 00:33:00.000 : :Глава 07 00:38:30.000 : :Глава 08 00:44:00.000 : :Глава 09 00:49:30.000 : :Глава 10 00:55:00.000 : :Глава 11 01:00:30.000 : :Глава 12 01:06:00.000 : :Глава 13 01:11:30.000 : :Глава 14 01:17:00.000 : :Глава 15 01:22:30.000 : :Глава 16 01:28:00.000 : :Глава 17
[+] Примечание:Исходник видео WEB-DL Amazon STARZ - периодически появляется логотип.
[+] Скриншоты

Всего файлов в раздаче: 1 
Пошли в тюрьму.(2006).WEB-DLRip.720p.[-=DoMiNo=-].mkv3.88 GB

Комментарии


Зарегистрируйтесь чтобы добавить комментарий
Торрент клиент
byTorrent - программа для загрузки торрент-файлов.

Скачать byTorrent.exe (1,5 МБ)

Скачать byTorrent.zip (0,6 МБ)

Поддержи torrent.by
российских рублей
(300 российских рублей это 4$)

Обратная связь rss

End game ©