↑↓torrent.by
Поиск
Логин:  Регистрация
Пароль:

План мести / The Best Man (2023) BDRemux 1080p от ELEKTRI4KA | D, P

download Скачать торрент-файл   magnet Магнитная ссылка Размер: 17.95 GB Добавлен: 2024-04-29 05:00
Пиры будут получены из сети DHT
Последний сидер был замечен 2024-05-02 00:28
«Группа террористов берёт в заложники гостей во время празднования свадьбы. Преступникам противостоит жених и его друзья, бывшие спецназовцы. Напряжённый боевик с Люком Уилсоном и Дольфом Лундгреном.» Информация о фильме Название: План мести Оригинальное название: The Best Man Год выхода: 2023 Жанр: боевик, триллер Режиссер: Шэйн Дэкс Тэйлор В ролях: Люк Уилсон, Дольф Лундгрен, Брендан Фер, Ники Уилан, Скаут Тейлор-Комптон, Скотт Мартин, Андрей Ивченко, Крис Маллинакс, Райан Девлин, Кинг Орба, Майкл Проктор, Патрик Проктор, Уэс Хагер, Алекс Реймундо, Брэд Ройстер О фильме: Команда террористов берет в заложники очень влиятельного человека и всю его семью во время празднования свадьбы дочери в отдаленном курортном отеле. Жених и его друзья, бывшие бойцы спецназа, должны во что бы то ни стало остановить преступников. Поможет ли им опыт прошлого выжить в этой ситуации и спасти заложников? Выпущено: США / Archstone Entertainment, Archstone Pictures, BondIt, Buffalo 8 Productions Продолжительность: 01:32:58 Озвучивание #1: Дублированное | Официальное Озвучивание #2: Профессиональное (многоголосое) | TVShows Файлы Формат: MKV Качество: BDRemux 1080p Видео: MPEG-4 AVC, 25.0 Mb/s, 1920x1080 Аудио #1: Russian: AC3, 384 Kb/s (6 ch) | DUB | Official Аудио #2: Russian: AC3, 384 Kb/s (6 ch) | MVO | TVShows Аудио #3: English: DTS-HD MA, 1864 Kb/s (6 ch) | Original Субтитры: English Дополнительно: Сохранены оригинальные чаптеры. Релиз группы:  | Мы в Telegram:
[+] Инфо-файл:Complete name: Plan.mesti.2023.BDRemux.1080p.ELEKTRI4KA.mkv Format: Matroska Format version: Version 4 File size: 17.9 GiB Duration: 1 h 33 min Overall bit rate mode: Variable Overall bit rate: 27.6 Mb/s Movie name: Plan.mesti.2023.BDRemux.1080p.ELEKTRI4KA. Encoded date: UTC 2024-04-27 20:06:48 Writing application: mkvmerge v8.3.0 ('Over the Horizon') 64bit Writing library: libebml v1.3.1 + libmatroska v1.4.2 Video ID: 1 Format: AVC Format/Info: Advanced Video Codec Format profile: High@L4.1 Format settings: CABAC / 3 Ref Frames Format settings, CABAC: Yes Format settings, Reference frames: 3 frames Codec ID: V_MPEG4/ISO/AVC Duration: 1 h 32 min Bit rate mode: Variable Bit rate: 25.0 Mb/s Maximum bit rate: 35.0 Mb/s Width: 1 920 pixels Height: 1 080 pixels Display aspect ratio: 16:9 Frame rate mode: Constant Frame rate: 23.976 (24000/1001) FPS Color space: YUV Chroma subsampling: 4:2:0 Bit depth: 8 bits Scan type: Progressive Bits/(Pixel*Frame): 0.503 Stream size: 16.2 GiB (90%) Default: Yes Forced: No Audio #1 ID: 2 Format: AC-3 Format/Info: Audio Coding 3 Commercial name: Dolby Digital Codec ID: A_AC3 Duration: 1 h 32 min Bit rate mode: Constant Bit rate: 384 kb/s Channel(s): 6 channels Channel layout: L R C LFE Ls Rs Sampling rate: 48.0 kHz Frame rate: 31.250 FPS (1536 SPF) Compression mode: Lossy Stream size: 255 MiB (1%) Title: DUB Language: Russian Service kind: Complete Main Default: Yes Forced: Yes Audio #2 ID: 3 Format: AC-3 Format/Info: Audio Coding 3 Commercial name: Dolby Digital Codec ID: A_AC3 Duration: 1 h 33 min Bit rate mode: Constant Bit rate: 384 kb/s Channel(s): 6 channels Channel layout: L R C LFE Ls Rs Sampling rate: 48.0 kHz Frame rate: 31.250 FPS (1536 SPF) Compression mode: Lossy Stream size: 256 MiB (1%) Title: MVO (TVShows) Language: Russian Service kind: Complete Main Default: No Forced: No Audio #3 ID: 4 Format: DTS XLL Format/Info: Digital Theater Systems Commercial name: DTS-HD Master Audio Codec ID: A_DTS Duration: 1 h 32 min Bit rate mode: Variable Bit rate: 1 864 kb/s Channel(s): 6 channels Channel layout: C L R Ls Rs LFE Sampling rate: 48.0 kHz Frame rate: 93.750 FPS (512 SPF) Bit depth: 16 bits Compression mode: Lossless Stream size: 1.21 GiB (7%) Title: Original Language: English Default: No Forced: No Text ID: 5 Format: UTF-8 Codec ID: S_TEXT/UTF8 Codec ID/Info: UTF-8 Plain Text Duration: 1 h 31 min Bit rate: 44 b/s Count of elements: 1071 Stream size: 29.7 KiB (0%) Language: English Default: No Forced: No Menu 00:00:00.000: en:Chapter 01 00:05:50.183: en:Chapter 02 00:13:36.565: en:Chapter 03 00:22:55.248: en:Chapter 04 00:30:10.934: en:Chapter 05 00:38:10.830: en:Chapter 06 00:46:00.174: en:Chapter 07 00:53:18.361: en:Chapter 08 01:00:49.979: en:Chapter 09 01:08:59.635: en:Chapter 10 01:17:25.057: en:Chapter 11 01:25:31.543: en:Chapter 12
[+] Скриншоты

Всего файлов в раздаче: 1 
Plan.mesti.2023.BDRemux.1080p.ELEKTRI4KA.mkv17.95 GB

Похожие раздачи по запросу - План
2024-04-29 magnet План мести / The Best Man (2023) BDRip 1080p от ELEKTRI4KA | D, P 8.42 GB ↑ 0 ↓ 0
2024-04-29 magnet План мести / The Best Man (2023) BDRip от ELEKTRI4KA | D 1.46 GB ↑ 0 ↓ 0
2024-04-29 magnet План мести / The Best Man (2023) BDRip 720p от ELEKTRI4KA | D, P 4.64 GB ↑ 0 ↓ 0
2024-04-29 magnet План мести / Шафер / The Best Man (2023) BDRip-AVC от DoMiNo & селезень | D, P 1.94 GB ↑ 0 ↓ 0
2024-04-26 magnet Коварный план Сюзан / Susan's Plan (1998) WEBRip | A 3.80 GB ↑ 0 ↓ 0
2024-03-28 magnet Семейный план / Сімейний план / The Family Plan (2023) WEB-DL-HEVC 2160p | 4K | HDR | Dolby Vision Profile 8 | P | UKR 20.34 GB ↑ 0 ↓ 0
2024-03-26 magnet Семейный план / The Family Plan (2023) WEB-DLRip от toxics & селезень | P | NewComers 1.47 GB ↑ 0 ↓ 1

Комментарии


Зарегистрируйтесь чтобы добавить комментарий
Торрент клиент
byTorrent - программа для загрузки торрент-файлов.

Скачать byTorrent.exe (1,5 МБ)

Скачать byTorrent.zip (0,6 МБ)

Поддержи torrent.by
российских рублей
(300 российских рублей это 4$)

Обратная связь rss

End game ©