↑↓torrent.by
Поиск
Логин:  Регистрация
Пароль:

Омен. Непорочная / Immaculate (2024) WEB-DL 1080p от New-Team | D, L | Soundmasters

download Скачать торрент-файл   magnet Магнитная ссылка Размер: 5.34 GB Добавлен: 2024-04-29 05:00
Пиры будут получены из сети DHT
Последний сидер был замечен вчера в 13:33
Омен. Непорочная / Immaculate Год выпуска: 2024 Выпущено: Италия, США, Black Bear, Fifty-Fifty Films, Lupin Film Жанр: Ужасы Режиссер: Майкл Мохан В ролях: Сидни Суини, Альваро Морте, Симона Табаско, Бенедетта Поркароли, Джорджо Коланджели, Дора Романо, Джампьеро Джудика, Элизабетта Педрацци О фильме: Церковь знала лишь один случай непорочного зачатия, но, похоже, что новая монахиня Сесилия в итальянском монастыре стала второй девственницей, которая вынашивает ребенка. Местные монахи объявили о чуде, но никто точно не знает, кого на самом деле носит под сердцем девушка - нового спасителя или того, кто погрузит мир в вечную тьму. Продолжительность: 01:28:58 #1 :Дублированный (неофициальный) | Soundmasters #2 :Любительский (многоголосый, закадровый) | Soundmasters Субтитры: Русские (full (stirlooo)), английские Раздача от: Автор релиза: JNS82. Формат: MKV Качество: WEB-DL 1080p | AMZN Видео: MPEG-4 AVC, x264, 7381 Кбит/с, (2,000), 1920x960, 23,976 fps Аудио #1: 48 kHz, AC3 Dolby Digital, 2/0 (L,R) ch, ~ 192 kbps | RUS | DUB Аудио #2: 48 kHz, AC3 Dolby Digital, 3/2 (L,C,R,l,r) + LFE ch, ~ 384 kbps | RUS | MVO Аудио #3: 48 kHz, E-AC3 Dolby Digital, 3/2 (L,C,R,l,r) + LFE ch, ~ 640 kbps | ENG |
[+] MediaInfoОбщее Уникальный идентификатор : 21196154743605974542007282365169644206 (0xFF23B1D1788C0D720A333B48487B2AE) Полное имя : D:TorrentsImmaculate,2024,1080p,AMZN_от New-Team.mkv Формат : Matroska Версия формата : Version 4 Размер файла : 5,34 Гбайт Продолжительность : 1 ч. 28 мин. Общий битрейт : 8 599 Кбит/сек Частота кадров : 23,976 кадра/сек Название фильма : Immaculate,2024,1080p,AMZN_от New-Team Дата кодирования : 2024-04-27 19:35:13 UTC Программа кодирования : mkvmerge v79.0 ('Funeral Pyres') 64-bit Библиотека кодирования : libebml v1.4.4 + libmatroska v1.7.1 Видео Идентификатор : 1 Формат : AVC Формат/Информация : Advanced Video Codec Профиль формата : High@L4 Настройки формата : CABAC / 4 Ref Frames Параметр CABAC формата : Да Параметр RefFrames формата : 4 кадра Идентификатор кодека : V_MPEG4/ISO/AVC Продолжительность : 1 ч. 28 мин. Вид битрейта : Постоянный Битрейт : 7 381 Кбит/сек Номинальный битрейт : 10 000 Кбит/сек Ширина : 1 920 пикселей Высота : 960 пикселей Соотношение сторон дисплея : 2,000 Режим частоты кадров : Постоянный Частота кадров : 23,976 (24000/1001) кадра/сек Цветовое пространство : YUV Цветовая субдискретизация : 4:2:0 Битовая глубина : 8 бит Тип развёртки : Прогрессивная Бит/(Пиксели*Кадры) : 0.167 Размер потока : 4,59 Гбайт (86%) Язык : Английский (US) По умолчанию : Да Принудительно : Нет Цветовой диапазон : Limited Основные цвета : BT.709 Характеристики трансфера : BT.709 Коэффициенты матрицы : BT.709 Аудио #1 Идентификатор : 2 Формат : AC-3 Формат/Информация : Audio Coding 3 Коммерческое название : Dolby Digital Идентификатор кодека : A_AC3 Продолжительность : 1 ч. 28 мин. Вид битрейта : Постоянный Битрейт : 192 Кбит/сек Канал(-ы) : 2 канала Расположение каналов : L R Частота дискретизации : 48,0 КГц Частота кадров : 31,250 кадров/сек (1536 SPF) Метод сжатия : С потерями Размер потока : 122 Мбайт (2%) Заголовок : DUB - Soundmasters Язык : Русский Вид сервиса : Complete Main По умолчанию : Да Принудительно : Нет Нормализация звука речи : -31 dB dialnorm_Average : -31 dB dialnorm_Minimum : -31 dB dialnorm_Maximum : -31 dB Аудио #2 Идентификатор : 3 Формат : AC-3 Формат/Информация : Audio Coding 3 Коммерческое название : Dolby Digital Идентификатор кодека : A_AC3 Продолжительность : 1 ч. 28 мин. Вид битрейта : Постоянный Битрейт : 384 Кбит/сек Канал(-ы) : 6 каналов Расположение каналов : L R C LFE Ls Rs Частота дискретизации : 48,0 КГц Частота кадров : 31,250 кадров/сек (1536 SPF) Метод сжатия : С потерями Размер потока : 244 Мбайт (4%) Заголовок : MVO - Soundmasters Язык : Русский Вид сервиса : Complete Main По умолчанию : Нет Принудительно : Нет Нормализация звука речи : -31 dB cmixlev : -4.5 dB surmixlev : -6 dB dialnorm_Average : -31 dB dialnorm_Minimum : -31 dB dialnorm_Maximum : -31 dB Аудио #3 Идентификатор : 4 Формат : E-AC-3 Формат/Информация : Enhanced AC-3 Коммерческое название : Dolby Digital Plus Идентификатор кодека : A_EAC3 Продолжительность : 1 ч. 28 мин. Вид битрейта : Постоянный Битрейт : 640 Кбит/сек Канал(-ы) : 6 каналов Расположение каналов : L R C LFE Ls Rs Частота дискретизации : 48,0 КГц Частота кадров : 31,250 кадров/сек (1536 SPF) Метод сжатия : С потерями Размер потока : 407 Мбайт (7%) Заголовок : Original Язык : Английский (US) Вид сервиса : Complete Main По умолчанию : Нет Принудительно : Нет Нормализация звука речи : -31 dB compr : -0.28 dB dialnorm_Average : -31 dB dialnorm_Minimum : -31 dB dialnorm_Maximum : -31 dB Текст #1 Идентификатор : 5 Формат : UTF-8 Идентификатор кодека : S_TEXT/UTF8 Идентификатор кодека/Информация : UTF-8 Plain Text Продолжительность : 1 ч. 19 мин. Битрейт : 47 бит/сек Частота кадров : 0,117 кадр/сек Число элементов : 563 Размер потока : 28,0 КиБ (0%) Заголовок : ] Язык : Русский По умолчанию : Нет Принудительно : Нет Текст #2 Идентификатор : 6 Формат : UTF-8 Идентификатор кодека : S_TEXT/UTF8 Идентификатор кодека/Информация : UTF-8 Plain Text Продолжительность : 1 ч. 4 мин. Битрейт : 7 бит/сек Частота кадров : 0,032 кадр/сек Число элементов : 124 Размер потока : 3,49 КиБ (0%) Язык : Английский (US) По умолчанию : Нет Принудительно : Нет Текст #3 Идентификатор : 7 Формат : UTF-8 Идентификатор кодека : S_TEXT/UTF8 Идентификатор кодека/Информация : UTF-8 Plain Text Продолжительность : 1 ч. 22 мин. Битрейт : 26 бит/сек Частота кадров : 0,121 кадр/сек Число элементов : 599 Размер потока : 16,3 КиБ (0%) Язык : Английский (US) По умолчанию : Нет Принудительно : Нет Текст #4 Идентификатор : 8 Формат : UTF-8 Идентификатор кодека : S_TEXT/UTF8 Идентификатор кодека/Информация : UTF-8 Plain Text Продолжительность : 1 ч. 23 мин. Битрейт : 34 бит/сек Частота кадров : 0,169 кадр/сек Число элементов : 843 Размер потока : 20,9 КиБ (0%) Заголовок : SDH Язык : Английский (US) По умолчанию : Нет Принудительно : Нет Меню 00:00:00.000 : en:Scene 1 01:20:44.875 : en:End Credits

Всего файлов в раздаче: 1 
Immaculate,2024,1080p,AMZN_от New-Team.mkv5.34 GB

Похожие раздачи по запросу - Омен
2024-04-29 magnet Омен. Непорочная / Immaculate (2024) WEB-DL 720p от селезень | D, L | Soundmasters 2.45 GB ↑ 0 ↓ 0
2024-04-29 magnet Омен. Непорочная / Immaculate (2024) WEB-DLRip-AVC от DoMiNo & селезень | D, L | Soundmasters 1.35 GB ↑ 0 ↓ 0
2024-04-29 magnet Омен. Непорочная / Immaculate (2024) WEB-DLRip от New-Team | D | Soundmasters 1.46 GB ↑ 0 ↓ 0
2024-04-28 magnet Омен. Непорочная / Immaculate (2024) WEB-DL 1080p от New-Team | D, L | Soundmasters 5.34 GB ↑ 0 ↓ 0
2024-04-20 magnet Омен. Непорочная / Immaculate (2024) WEB-DLRip от ExKinoRay | L 738.51 MB ↑ 0 ↓ 0
2024-04-19 magnet Омен. Непорочная / Immaculate (2024) WEB-DLRip от New-Team | L | Soundmasters 1.46 GB ↑ 0 ↓ 0
2024-04-19 magnet Омен. Непорочная / Immaculate (2024) WEB-DLRip от DoMiNo & селезень | L | Soundmasters 1.45 GB ↑ 0 ↓ 0

Комментарии


Зарегистрируйтесь чтобы добавить комментарий
Торрент клиент
byTorrent - программа для загрузки торрент-файлов.

Скачать byTorrent.exe (1,5 МБ)

Скачать byTorrent.zip (0,6 МБ)

Поддержи torrent.by
российских рублей
(300 российских рублей это 4$)

Обратная связь rss

End game ©