↑↓torrent.by
Поиск
Логин:  Регистрация
Пароль:

Мятежная Луна, часть 2: Оставляющая шрамы / Rebel Moon - Part Two: The Scargiver (2024) WEB-DL 1080p от New-Team | D, P

download Скачать торрент-файл   magnet Магнитная ссылка Размер: 6.30 GB Раздают: 0 Качают: 1 Добавлен: 2024-04-29 05:00
Пиры будут получены из сети DHT
Последний сидер был замечен 2024-05-18 21:07
Мятежная Луна, часть 2: Оставляющая шрамы / Rebel Moon - Part Two: The Scargiver Год выпуска: 2024 Выпущено: США / Grand Electric, The Stone Quarry Жанр: фантастика, фэнтези, боевик, драма, приключения Режиссер: Зак Снайдер / Zack Snyder В ролях: София Бутелла, Джимон Хонсу, Эд Скрейн, Михиль Хаусман, Стаз Наир, Джена Мэлоун, Чарли Ханнэм, Пэ Дуна, Клеопатра Коулмэн, Кэри Элвис, Стюарт Мартин, Рэй Фишер, Кори Столл, Альфонсо Эррера, Триша Симмонс, Фра Фи, Саванна Ганн, Джозефина Линдегард, Скай Ян, Райан Рис, Кингстон Фостер, Томм Восс, Тор Кнай, Рафаэль Коркхилл, Гаден Драгомер, Кристин Келлогг-Даррин, Мэтт Нолан, Кендалл Уэллс, Ивэн Шафран, Майкл Джеймс Белл, Даррен Джейкобс, Адам Джей Смит, Пол Кулос, Эрик Томас О фильме: События фильма разворачиваются во вселенной, контролируемой коррумпированным правительством Праматери. Кора и выжившие воины готовятся пожертвовать всем, сражаясь плечом к плечу с народом Вельдта. Накануне битвы героям предстоит взглянуть в лицо своему прошлому и понять за что они должны биться. Продолжительность: 02:03:54 Перевод (ы): #1: Профессиональный (многоголосый закадровый) | TVShows (tnx.tron11) #2: Профессиональный (многоголосый закадровый) | Jaskier | 18+ #3: Профессиональный (многоголосый закадровый) | LostFilm #4: Дублированный (неофициальный) | HDrezka Studio Субтитры: Русские (full), английские (SDH) Раздача от: Автор релиза: JNS82. Формат: MKV Качество: WEB-DL 1080p | NF Видео: MPEG-4 AVC, x264, 5000 Кбит/с, (16:9), 1920x1080, 24,000 fps Аудио #1: 48 kHz, AC3 Dolby Digital, 3/2 (L,C,R,l,r) + LFE ch, ~ 640 kbps | RUS | TVShows Аудио #2: 48 kHz, AC3 Dolby Digital, 3/2 (L,C,R,l,r) + LFE ch, ~ 448 kbps | RUS | Jaskier Аудио #3: 48 kHz, AC3 Dolby Digital, 2/0 (L,R) ch, ~ 384 kbps | RUS | LostFilm Аудио #4: 48 kHz, AAC Dolby Digital, 2/0 (L,R) ch, ~ 192 kbps | RUS | HDrezka Studio Аудио #5: 48 kHz, E-AC3 JOC Dolby Digital, 3/2 (L,C,R,l,r) + LFE ch, ~ 768 kbps | ENG |
[+] MediaInfoОбщее Уникальный идентификатор : 321875389288853706905780485908976435831 (0xF226F1EF6782408FC16F3016F7810277) Полное имя : D:TorrentsRebel.Moon.Part.Two.2024.1080p.NF_от New-Team.mkv Формат : Matroska Версия формата : Version 4 Размер файла : 6,30 Гбайт Продолжительность : 2 ч. 3 мин. Режим общего битрейта : Переменный Общий битрейт : 7 273 Кбит/сек Частота кадров : 24,000 кадра/сек Название фильма : Rebel.Moon.Part.Two.2024.1080p.NF_от New-Team Дата кодирования : 2024-04-28 08:08:22 UTC Программа кодирования : mkvmerge v79.0 ('Funeral Pyres') 64-bit Библиотека кодирования : libebml v1.4.4 + libmatroska v1.7.1 / Lavf60.16.100 Видео Идентификатор : 1 Формат : AVC Формат/Информация : Advanced Video Codec Профиль формата : Main@L4 Настройки формата : CABAC / 3 Ref Frames Параметр CABAC формата : Да Параметр RefFrames формата : 3 кадра Идентификатор кодека : V_MPEG4/ISO/AVC Продолжительность : 2 ч. 3 мин. Вид битрейта : Переменный Битрейт : 5 000 Кбит/сек Максимальный битрейт : 7 500 Кбит/сек Ширина : 1 920 пикселей Высота : 1 080 пикселей Соотношение сторон дисплея : 16:9 Режим частоты кадров : Постоянный Частота кадров : 24,000 кадра/сек Цветовое пространство : YUV Цветовая субдискретизация : 4:2:0 Битовая глубина : 8 бит Тип развёртки : Прогрессивная Бит/(Пиксели*Кадры) : 0.100 Размер потока : 4,19 Гбайт (67%) Библиотека кодирования : x264 core 148 r2727 7d026e8 Параметры библиотеки кодирования : cabac=1 / ref=3 / deblock=1:0:0 / analyse=0x1:0x111 / me=umh / subme=10 / psy=1 / psy_rd=1.00:0.00 / mixed_ref=1 / me_range=24 / chroma_me=1 / trellis=2 / 8x8dct=0 / cqm=0 / deadzone=21,11 / fast_pskip=1 / chroma_qp_offset=-2 / threads=6 / lookahead_threads=1 / sliced_threads=0 / nr=0 / decimate=1 / interlaced=0 / bluray_compat=0 / stitchable=1 / constrained_intra=0 / bframes=2 / b_pyramid=0 / b_adapt=2 / b_bias=0 / direct=3 / weightb=1 / open_gop=0 / weightp=2 / keyint=240 / keyint_min=121 / scenecut=0 / intra_refresh=0 / rc_lookahead=48 / rc=2pass / mbtree=1 / bitrate=5000 / ratetol=1.0 / qcomp=0.50 / qpmin=6 / qpmax=51 / qpstep=4 / cplxblur=20.0 / qblur=0.5 / vbv_maxrate=7500 / vbv_bufsize=10000 / nal_hrd=vbr / filler=0 / ip_ratio=1.40 / aq=1:1.00 Язык : Английский По умолчанию : Да Принудительно : Нет Аудио #1 Идентификатор : 2 Формат : AC-3 Формат/Информация : Audio Coding 3 Коммерческое название : Dolby Digital Идентификатор кодека : A_AC3 Продолжительность : 2 ч. 3 мин. Вид битрейта : Постоянный Битрейт : 640 Кбит/сек Канал(-ы) : 6 каналов Расположение каналов : L R C LFE Ls Rs Частота дискретизации : 48,0 КГц Частота кадров : 31,250 кадров/сек (1536 SPF) Метод сжатия : С потерями Размер потока : 567 Мбайт (9%) Заголовок : MVO - TVShows Язык : Русский Вид сервиса : Complete Main По умолчанию : Да Принудительно : Нет Нормализация звука речи : -31 dB cmixlev : -4.5 dB surmixlev : -6 dB dialnorm_Average : -31 dB dialnorm_Minimum : -31 dB dialnorm_Maximum : -31 dB Аудио #2 Идентификатор : 3 Формат : AC-3 Формат/Информация : Audio Coding 3 Коммерческое название : Dolby Digital Идентификатор кодека : A_AC3 Продолжительность : 2 ч. 3 мин. Вид битрейта : Постоянный Битрейт : 448 Кбит/сек Канал(-ы) : 6 каналов Расположение каналов : L R C LFE Ls Rs Частота дискретизации : 48,0 КГц Частота кадров : 31,250 кадров/сек (1536 SPF) Метод сжатия : С потерями Размер потока : 397 Мбайт (6%) Заголовок : MVO - Jaskier | 18 + Язык : Русский Вид сервиса : Complete Main По умолчанию : Нет Принудительно : Нет Нормализация звука речи : -31 dB cmixlev : -4.5 dB surmixlev : -6 dB dialnorm_Average : -31 dB dialnorm_Minimum : -31 dB dialnorm_Maximum : -31 dB Аудио #3 Идентификатор : 4 Формат : AC-3 Формат/Информация : Audio Coding 3 Коммерческое название : Dolby Digital Идентификатор кодека : A_AC3 Продолжительность : 2 ч. 3 мин. Вид битрейта : Постоянный Битрейт : 384 Кбит/сек Канал(-ы) : 2 канала Расположение каналов : L R Частота дискретизации : 48,0 КГц Частота кадров : 31,250 кадров/сек (1536 SPF) Метод сжатия : С потерями Размер потока : 340 Мбайт (5%) Заголовок : MVO - LostFilm Язык : Русский Вид сервиса : Complete Main По умолчанию : Нет Принудительно : Нет Нормализация звука речи : -31 dB dialnorm_Average : -31 dB dialnorm_Minimum : -31 dB dialnorm_Maximum : -31 dB Аудио #4 Идентификатор : 5 Формат : AAC LC Формат/Информация : Advanced Audio Codec Low Complexity Идентификатор кодека : A_AAC-2 Продолжительность : 2 ч. 3 мин. Битрейт : 192 Кбит/сек Канал(-ы) : 2 канала Расположение каналов : L R Частота дискретизации : 48,0 КГц Частота кадров : 46,875 кадров/сек (1024 SPF) Метод сжатия : С потерями Размер потока : 171 Мбайт (3%) Заголовок : DUB - HDRezka Studio Язык : Русский По умолчанию : Нет Принудительно : Нет Аудио #5 Идентификатор : 6 Формат : E-AC-3 JOC Формат/Информация : Enhanced AC-3 with Joint Object Coding Коммерческое название : Dolby Digital Plus with Dolby Atmos Идентификатор кодека : A_EAC3 Продолжительность : 2 ч. 3 мин. Вид битрейта : Постоянный Битрейт : 768 Кбит/сек Канал(-ы) : 6 каналов Расположение каналов : L R C LFE Ls Rs Частота дискретизации : 48,0 КГц Частота кадров : 31,250 кадров/сек (1536 SPF) Метод сжатия : С потерями Размер потока : 681 Мбайт (11%) Заголовок : Original Язык : Английский Вид сервиса : Complete Main По умолчанию : Нет Принудительно : Нет Показатель сложности : 16 Количество динамических объектов : 15 Число каналов бэда : 1 канал Конфигурация каналов бэда : LFE Нормализация звука речи : -25 dB compr : -0.28 dB dmixmod : 3 ltrtcmixlev : -3.0 dB ltrtsurmixlev : -3.0 dB lorocmixlev : -3.0 dB lorosurmixlev : -3.0 dB dialnorm_Average : -25 dB dialnorm_Minimum : -25 dB dialnorm_Maximum : -25 dB Текст #1 Идентификатор : 7 Формат : UTF-8 Идентификатор кодека : S_TEXT/UTF8 Идентификатор кодека/Информация : UTF-8 Plain Text Продолжительность : 2 ч. 0 мин. Битрейт : 47 бит/сек Частота кадров : 0,118 кадр/сек Число элементов : 857 Размер потока : 41,8 КиБ (0%) Заголовок : Язык : Русский По умолчанию : Нет Принудительно : Нет Текст #2 Идентификатор : 8 Формат : UTF-8 Идентификатор кодека : S_TEXT/UTF8 Идентификатор кодека/Информация : UTF-8 Plain Text Продолжительность : 1 ч. 59 мин. Битрейт : 45 бит/сек Частота кадров : 0,191 кадр/сек Число элементов : 1378 Размер потока : 39,7 КиБ (0%) Заголовок : Язык : Английский По умолчанию : Нет Принудительно : Нет

Всего файлов в раздаче: 1 
Rebel.Moon.Part.Two.2024.1080p.NF_от New-Team.mkv6.30 GB

Похожие раздачи по запросу - Мятежная
2024-05-03 magnet Мятежная Луна, часть 2: Оставляющая шрамы / Rebel Moon - Part Two: The Scargiver (2024) WEB-DL HEVC 2160p | 4K | HDR | Dolby Vision Profile 8 | D 11.25 GB ↑ 0 ↓ 0
2024-04-29 magnet Мятежная Луна, часть 2: Оставляющая шрамы / Rebel Moon - Part Two: The Scargiver (2024) WEB-DLRip 720p от DoMiNo & селезень | D, P, P2 4.39 GB ↑ 0 ↓ 0
2024-04-28 magnet Мятежная Луна, часть 2: Оставляющая шрамы / Rebel Moon - Part Two: The Scargiver (2024) WEB-DLRip 720p от DoMiNo & селезень | D, P, P2 3.78 GB ↑ 0 ↓ 0
2024-04-28 magnet Мятежная Луна, часть 2: Оставляющая шрамы / Rebel Moon - Part Two: The Scargiver (2024) WEB-DL 1080p от EniaHD | D, P, P2, L 7.79 GB ↑ 1 ↓ 0
2024-04-24 magnet Мятежная Луна, часть 2: Дарующая шрамы / Rebel Moon. Частина 2: Та, що лишає шрами / Rebel Moon - Part Two: The Scargiver (2024) WEB-DL-HEVC 2160p | 4K | HDR | Dolby Vision Profile 8 | D | Netflix | UKR 11.75 GB ↑ 0 ↓ 0
2024-04-23 magnet Мятежная Луна, часть 2: Оставляющая шрамы / Rebel Moon - Part Two: The Scargiver (2024) WEB-DL-HEVC 2160p | 4K | HDR | P, P2 12.50 GB ↑ 0 ↓ 0
2024-04-22 magnet Мятежная Луна, часть 1: Дитя огня / Rebel Moon: Part One - A Child of Fire (2023) WEB-DL-HEVC 2160p | 4K | SDR | D, P, A 20.74 GB ↑ 0 ↓ 0

Кто качает (только для создателя раздачи и модераторов):
ПользовательIP:портОтдалПринялОстатокСидируетТоррент клиентОбновился
1 Аноним 123.187.113.188:39131 0.00 B 503.53 MB 6.22 GB нет -qB4390- 05:06 2024-05-22

Комментарии


Зарегистрируйтесь чтобы добавить комментарий
Торрент клиент
byTorrent - программа для загрузки торрент-файлов.

Скачать byTorrent.exe (1,5 МБ)

Скачать byTorrent.zip (0,6 МБ)

Поддержи torrent.by
российских рублей
(300 российских рублей это 4$)

Обратная связь rss

End game ©