↑↓torrent.by
Поиск
Логин:  Регистрация
Пароль:

Приказ: Убить / Kill Order (2017) BDRip 1080p | A | Дольский

download Скачать торрент-файл   magnet Магнитная ссылка Размер: 6.35 GB Добавлен: 2024-04-29 11:00
Пиры будут получены из сети DHT
Последний сидер был замечен 2024-05-09 14:04
Информация о фильме Название: Приказ: Убить Оригинальное название: Kill Order Год выхода: 2017 Жанр: Фантастика, боевик Режиссер: Джеймс Марк В ролях: Крис Марк, Джессика Клемент, Деннис Акаяма, Дэниэл Парк, Мили Хаттон, Джейсон Госби, Трой Фельдман, Ален Мусси, Джонни Кейнс, Скотт Квальейру О фильме: Дэвид учится в старших классах и страдает от периодических судорог и пугающих навязчивых воспоминаний. Однажды в его класс врывается группа боевиков и пытается взять Дэвида в плен. Стресс пробуждает прежде дремавшие в нём силы, парень отбивается от нападения и пускается в бега. Теперь ему предстоит раскрыть тайны своего мрачного прошлого - если, конечно, удастся прожить хоть один день. Страна: Канада Студия: 2X Entertainment, IndiePro Studios, Iron Bay Films Продолжительность: 01:17:28 Перевод: Авторский (одноголосый, закадровый) | А. Дольский Файл Формат: MKV Качество: BDRip 1080p Видео: MPEG-4 AVC, 1920x816 (2.35:1), 23.976 fps, ~ 10.5 Mbps Аудио 1: Russian: 48 kHz, AC3, 3/2 (L,C,R,l,r) + LFE ch, ~ 640 kbps Аудио 2: English: 48 kHz, AC3, 3/2 (L,C,R,l,r) + LFE ch, ~ 640 kbps Субтитры: Английские (Full, SDH)
[+] Скриншоты
[+] Инфо-файлGeneral Unique ID : 170447583397202225386806874914304619852 (0x803B02AEE73901B1A3EBC7C346B4F54C) Complete name : Kill.Order.2017.BDRip.1080p.mkv Format : Matroska Format version : Version 4 File size : 6.35 GiB Duration : 1 h 17 min Overall bit rate : 11.7 Mb/s Encoded date : UTC 2024-04-28 12:19:55 Writing application : mkvmerge v7.3.0 ('Nouages') 64bit built on Oct 22 2014 18:53:34 Writing library : libebml v1.3.0 + libmatroska v1.4.1 Video ID : 1 Format : AVC Format/Info : Advanced Video Codec Format profile : High@L4.1 Format settings : CABAC / 5 Ref Frames Format settings, CABAC : Yes Format settings, Reference frames : 5 frames Codec ID : V_MPEG4/ISO/AVC Duration : 1 h 17 min Bit rate : 10.5 Mb/s Width : 1 920 pixels Height : 816 pixels Display aspect ratio : 2.35:1 Frame rate mode : Constant Frame rate : 23.976 (24000/1001) FPS Color space : YUV Chroma subsampling : 4:2:0 Bit depth : 8 bits Scan type : Progressive Bits/(Pixel*Frame) : 0.278 Stream size : 5.66 GiB (89%) Writing library : x264 core 164 r3156+57M dac90dd t_mod_New Encoding settings : cabac=1 / ref=5 / deblock=1:-3:-3 / analyse=0x3:0x133 / me=umh / subme=11 / psy=1 / fade_compensate=0.00 / psy_rd=1.00:0.00 / mixed_ref=1 / me_range=32 / chroma_me=1 / trellis=2 / 8x8dct=1 / cqm=0 / deadzone=21,11 / fast_pskip=0 / chroma_qp_offset=-2 / threads=25 / lookahead_threads=6 / sliced_threads=0 / nr=0 / decimate=0 / interlaced=0 / bluray_compat=0 / constrained_intra=0 / fgo=0 / bframes=16 / b_pyramid=2 / b_adapt=2 / b_bias=0 / direct=3 / weightb=1 / open_gop=0 / weightp=2 / keyint=250 / keyint_min=23 / scenecut=40 / intra_refresh=0 / rc=crf / mbtree=0 / crf=17.7000 / qcomp=0.62 / qpmin=0:0:0 / qpmax=69:69:69 / qpstep=4 / ip_ratio=1.30 / pb_ratio=1.20 / aq=3:0.75 / aq-sensitivity=10.00 / aq-factor=1.00:1.00:1.00:1.00 / aq2=0 / aq3=0 Language : English Default : Yes Forced : No Color range : Limited Color primaries : BT.709 Transfer characteristics : BT.709 Matrix coefficients : BT.709 Audio #1 ID : 2 Format : AC-3 Format/Info : Audio Coding 3 Commercial name : Dolby Digital Codec ID : A_AC3 Duration : 1 h 17 min Bit rate mode : Constant Bit rate : 640 kb/s Channel(s) : 6 channels Channel layout : L R C LFE Ls Rs Sampling rate : 48.0 kHz Frame rate : 31.250 FPS (1536 SPF) Compression mode : Lossy Stream size : 355 MiB (5%) Title : AVO (Дольский) Language : Russian Service kind : Complete Main Default : Yes Forced : No Audio #2 ID : 3 Format : AC-3 Format/Info : Audio Coding 3 Commercial name : Dolby Digital Codec ID : A_AC3 Duration : 1 h 17 min Bit rate mode : Constant Bit rate : 640 kb/s Channel(s) : 6 channels Channel layout : L R C LFE Ls Rs Sampling rate : 48.0 kHz Frame rate : 31.250 FPS (1536 SPF) Compression mode : Lossy Stream size : 355 MiB (5%) Title : Original Language : English Service kind : Complete Main Default : No Forced : No Text #1 ID : 4 Format : UTF-8 Codec ID : S_TEXT/UTF8 Codec ID/Info : UTF-8 Plain Text Duration : 1 h 10 min Bit rate : 31 b/s Count of elements : 487 Stream size : 16.2 KiB (0%) Title : Full Language : English Default : No Forced : No Text #2 ID : 5 Format : UTF-8 Codec ID : S_TEXT/UTF8 Codec ID/Info : UTF-8 Plain Text Duration : 1 h 10 min Bit rate : 40 b/s Count of elements : 651 Stream size : 21.2 KiB (0%) Title : SDH Language : English Default : No Forced : No Menu 00:00:00.000 : en:Chapter 01 00:04:22.261 : en:Chapter 02 00:12:02.596 : en:Chapter 03 00:17:28.630 : en:Chapter 04 00:25:41.039 : en:Chapter 05 00:33:48.276 : en:Chapter 06 00:42:15.407 : en:Chapter 07 00:47:27.761 : en:Chapter 08 00:51:12.569 : en:Chapter 09 00:58:21.289 : en:Chapter 10 01:05:23.711 : en:Chapter 11 01:11:20.359 : en:Chapter 12

Всего файлов в раздаче: 1 
Kill.Order.2017.BDRip.1080p.mkv6.35 GB

Комментарии


Зарегистрируйтесь чтобы добавить комментарий
Торрент клиент
byTorrent - программа для загрузки торрент-файлов.

Скачать byTorrent.exe (1,5 МБ)

Скачать byTorrent.zip (0,6 МБ)

Поддержи torrent.by
российских рублей
(300 российских рублей это 4$)

Обратная связь rss

End game ©