↑↓torrent.by
Поиск
Логин:  Регистрация
Пароль:

Жажда смерти / Death Wish (2018) BDRip-AVC от ExKinoRay | Лицензия

download Скачать торрент-файл   magnet Магнитная ссылка Размер: 1.80 GB Добавлен: 2024-04-29 11:00
Пиры будут получены из сети DHT
Последний сидер был замечен 2024-04-30 02:42
Название: Жажда смерти Оригинальное название: Death Wish Год выпуска: 2018 Жанр: Боевик, триллер, криминал Режиссер: Элай Рот В ролях: Брюс Уиллис, Винсент Д'Онофрио, Элизабет Шу, Камила Морроне, Дин Норрис, Бо Напп, Кимберли Элиз, Лен Кариу, Джек Кеси, Ронни Джин Блевинс О фильме: Пол Керси - хирург, привыкший вытаскивать людей с того света после криминальных разборок. Но после того, как его жена и дочь становятся жертвами уличной банды, а полиция бездействует, он берет карающий меч правосудия в свои руки. Видео изобретательных убийств преступников покоряют интернет-топы, а среди жителей города расходятся слухи о неуловимом народном мстителе, которому теперь принадлежит весь город. Он мстит бодро, весело и со вкусом. Страна: США Студия: Paramount Pictures, Metro-Goldwyn-Mayer Продолжительность: 01:46:43 Перевод: Дублированный | Лицензия Субтитры: Русские, английские БЕЗ КАКОЙ-ЛИБО РЕКЛАМЫ! Формат: MKV Качество: BDRip-AVC (исх.Death.Wish.2018.remuX.108Op) Видео: MPEG-4 AVC, 1024x426 (2.40:1), 23.976 fps, 1520 Kbps, 0.145 bit/pixel Аудио #01: 48 kHz, AC3, 5.1, 448 Kbps | RUS | Аудио #02: 48 kHz, AC3, 5.1, 448 Kbps | Оригинал | ENG |
[+] МИGeneral Unique ID : 180796330019204130129577866707747109336 (0x88041B48F4109E3DB90DB9E7ED6E79D8) Complete name : F:Death.Wish.2018.Dub.BDRip.AVC.ExKinoRay.mkv Format : Matroska Format version : Version 2 File size : 1.80 GiB Duration : 1 h 46 min Overall bit rate : 2 418 kb/s Movie name : Death Wish 2018 from ExKinoRay Encoded date : UTC 2019-12-25 14:30:13 Writing application : mkvmerge v5.6.0 ('Kenya Kane') built on May 27 2012 16:44:04 Writing library : libebml v1.2.3 + libmatroska v1.3.0 Video ID : 1 Format : AVC Format/Info : Advanced Video Codec Format profile : High@L4.1 Format settings, CABAC : Yes Format settings, ReFrames : 12 frames Codec ID : V_MPEG4/ISO/AVC Duration : 1 h 46 min Bit rate : 1 520 kb/s Width : 1 024 pixels Height : 426 pixels Display aspect ratio : 2.40:1 Frame rate mode : Constant Frame rate : 23.976 (23976/1000) FPS Color space : YUV Chroma subsampling : 4:2:0 Bit depth : 8 bits Scan type : Progressive Bits/(Pixel*Frame) : 0.145 Stream size : 1.10 GiB (61%) Title : Enigma Writing library : x264 core 152 r2851 ba24899 Encoding settings : cabac=1 / ref=12 / deblock=1:-3:-3 / analyse=0x3:0x113 / me=umh / subme=10 / psy=1 / psy_rd=1.05:0.10 / mixed_ref=1 / me_range=32 / chroma_me=1 / trellis=2 / 8x8dct=1 / cqm=0 / deadzone=21,11 / fast_pskip=0 / chroma_qp_offset=-3 / threads=12 / lookahead_threads=3 / sliced_threads=0 / nr=0 / decimate=0 / interlaced=0 / bluray_compat=0 / constrained_intra=0 / bframes=14 / b_pyramid=2 / b_adapt=2 / b_bias=0 / direct=3 / weightb=1 / open_gop=0 / weightp=2 / keyint=240 / keyint_min=23 / scenecut=40 / intra_refresh=0 / rc_lookahead=40 / rc=2pass / mbtree=0 / bitrate=1520 / ratetol=1.0 / qcomp=0.65 / qpmin=0 / qpmax=51 / qpstep=4 / cplxblur=20.0 / qblur=0.5 / vbv_maxrate=50000 / vbv_bufsize=62500 / nal_hrd=none / filler=0 / ip_ratio=1.40 / pb_ratio=1.30 / aq=2:0.90 Language : English Default : Yes Forced : No Color range : Limited Color primaries : BT.709 Transfer characteristics : BT.709 Matrix coefficients : BT.709 Audio #1 ID : 2 Format : AC-3 Format/Info : Audio Coding 3 Mode extension : CM (complete main) Format settings, Endianness : Big Codec ID : A_AC3 Duration : 1 h 46 min Bit rate mode : Constant Bit rate : 448 kb/s Channel(s) : 6 channels Channel positions : Front: L C R, Side: L R, LFE Sampling rate : 48.0 kHz Frame rate : 31.250 FPS (1536 spf) Compression mode : Lossy Stream size : 342 MiB (19%) Title : Dub (R5) Language : Russian Default : Yes Forced : No Audio #2 ID : 3 Format : AC-3 Format/Info : Audio Coding 3 Mode extension : CM (complete main) Format settings, Endianness : Big Codec ID : A_AC3 Duration : 1 h 46 min Bit rate mode : Constant Bit rate : 448 kb/s Channel(s) : 6 channels Channel positions : Front: L C R, Side: L R, LFE Sampling rate : 48.0 kHz Frame rate : 31.250 FPS (1536 spf) Compression mode : Lossy Stream size : 342 MiB (19%) Language : English Default : No Forced : No Text #1 ID : 4 Format : UTF-8 Codec ID : S_TEXT/UTF8 Codec ID/Info : UTF-8 Plain Text Title : Full Language : Russian Default : No Forced : No Text #2 ID : 5 Format : UTF-8 Codec ID : S_TEXT/UTF8 Codec ID/Info : UTF-8 Plain Text Language : English Default : No Forced : No Menu 00:00:00.000 : en:00:00:00.000 00:05:39.089 : en:00:05:39.089 00:08:51.239 : en:00:08:51.239 00:11:55.798 : en:00:11:55.798 00:19:12.860 : en:00:19:12.860 00:24:34.139 : en:00:24:34.139 00:28:37.174 : en:00:28:37.174 00:32:45.964 : en:00:32:45.964 00:36:15.840 : en:00:36:15.840 00:43:49.168 : en:00:43:49.168 00:47:10.411 : en:00:47:10.411 00:53:49.518 : en:00:53:49.518 00:56:56.330 : en:00:56:56.330 01:00:27.082 : en:01:00:27.082 01:07:55.154 : en:01:07:55.154 01:11:16.564 : en:01:11:16.564 01:15:52.256 : en:01:15:52.256 01:19:23.926 : en:01:19:23.926 01:22:41.415 : en:01:22:41.415 01:25:43.889 : en:01:25:43.889 01:28:20.837 : en:01:28:20.837 01:31:24.813 : en:01:31:24.813 01:37:14.537 : en:01:37:14.537 01:40:07.585 : en:01:40:07.585
Релиз от: Автор релиза:

Всего файлов в раздаче: 1 
Death.Wish.2018.Dub.BDRip.AVC.ExKinoRay.mkv1.80 GB

Похожие раздачи по запросу - Жажда
2024-04-29 magnet Жажда золота / Gold (2022) BDRip-AVC от DoMiNo | D 1.76 GB ↑ 0 ↓ 0
2024-01-21 magnet VA - Жажда Скорости - Сборник Лучшего Vol. 06 (2013) MP3 1.30 GB ↑ 0 ↓ 0

Кто качает (только для создателя раздачи и модераторов): Локальные пиры отсутствуют

Комментарии


Зарегистрируйтесь чтобы добавить комментарий
Торрент клиент
byTorrent - программа для загрузки торрент-файлов.

Скачать byTorrent.exe (1,5 МБ)

Скачать byTorrent.zip (0,6 МБ)

Поддержи torrent.by
российских рублей
(300 российских рублей это 4$)

Обратная связь rss

End game ©