↑↓torrent.by
Поиск
Логин:  Регистрация
Пароль:

Поездка в Милан / Моя тень - твоя / La mia ombra è tua / My Shadow Is Your Shadow (2022) WEB-DLRip-AVC от New-Team | P

download Скачать торрент-файл   magnet Магнитная ссылка Размер: 1.65 GB Добавлен: 2024-04-29 17:00
Пиры будут получены из сети DHT
Последний сидер был замечен 2024-04-29 17:00
Поездка в Милан / Моя тень - твоя / La mia ombra è tua / My Shadow Is Your Shadow Год выпуска: 2022 Выпущено: Италия / Rai Cinema Жанр: драма, комедия Режиссер: Эудженио Каппуччо / Eugenio Cappuccio В ролях: Марко Джаллини, Джузеппе Маджио, Анна Мануэлли, Изабелла Феррари, Сиди Диоп, Клаудио Бигальи, Леопольдо Мастеллони, Мириам Превиати, Алессандра Аччаи, Дезире Де Люка, Тото Оннис, Фабрицио Буомпасторе О фильме: Из Тосканы в Милан на старом джипе едет странная парочка друзей: 25-летний Эмилиано, неуверенный в себе выпускник филфака, и 60-летний писатель Витторио Веццози, отвязный и беспринципный повеса. Много лет назад его первая и единственная книга стала мировым бестселлером, но больше он ничего не писал, прожигая дни в роскошном поместье. Сейчас они направляются на Миланскую ярмарку, где Веццози предстоит впервые нарушить молчание и встретить самую большую любовь своей молодости. Продолжительность: 01:47:13 Перевод: Профессиональный (многоголосый, закадровый) | Кириллица Субтитры: Русские (full) Раздача от: Автор релиза: JNS82. Формат: MKV Качество: WEB-DLRip-AVC Видео: MPEG-4 AVC, 1024x428, 1815 Кбит/с, (2,39:1), 24,000 fps Аудио #1: 48 kHz, AC3 Dolby Digital, 3/2 (L,C,R,l,r) + LFE ch, ~ 384 kbps | RUS |
[+] MediaInfoОбщее Уникальный идентификатор : 254027860987644699477753619032885987022 (0xBF1BFC85EBCF4DE4732CE802BF5886CE) Полное имя : D:TorrentsLa.mia.ombra.e.tua.2022.WEB-DLRip-AVC_от New-Team_by_JNS82.mkv Формат : Matroska Версия формата : Version 4 Размер файла : 1,65 Гбайт Продолжительность : 1 ч. 47 мин. Общий битрейт : 2 196 Кбит/сек Частота кадров : 24,000 кадра/сек Название фильма : La.mia.ombra.e.tua.2022.WEB-DLRip-AVC_от New-Team_by_JNS82 Дата кодирования : 2024-04-29 04:23:02 UTC Программа кодирования : mkvmerge v79.0 ('Funeral Pyres') 64-bit Библиотека кодирования : libebml v1.4.4 + libmatroska v1.7.1 Видео Идентификатор : 1 Формат : AVC Формат/Информация : Advanced Video Codec Профиль формата : High@L4.1 Настройки формата : CABAC / 14 Ref Frames Параметр CABAC формата : Да Параметр RefFrames формата : 14 кадров Идентификатор кодека : V_MPEG4/ISO/AVC Продолжительность : 1 ч. 47 мин. Битрейт : 1 815 Кбит/сек Ширина : 1 024 пикселя Высота : 428 пикселей Соотношение сторон дисплея : 2,39:1 Режим частоты кадров : Постоянный Частота кадров : 24,000 кадра/сек Цветовое пространство : YUV Цветовая субдискретизация : 4:2:0 Битовая глубина : 8 бит Тип развёртки : Прогрессивная Бит/(Пиксели*Кадры) : 0.173 Размер потока : 1,36 Гбайт (82%) Библиотека кодирования : x264 core 164 r3156+57M NewTeam t_mod_New Параметры библиотеки кодирования : cabac=1 / ref=14 / deblock=1:-3:-2 / analyse=0x3:0x113 / me=umh / subme=10 / psy=1 / fade_compensate=0.00 / psy_rd=1.05:0.03 / mixed_ref=1 / me_range=48 / chroma_me=1 / trellis=2 / 8x8dct=1 / cqm=0 / deadzone=21,11 / fast_pskip=0 / chroma_qp_offset=-3 / threads=13 / lookahead_threads=3 / sliced_threads=0 / nr=0 / decimate=0 / interlaced=0 / bluray_compat=0 / constrained_intra=0 / fgo=0 / bframes=12 / b_pyramid=2 / b_adapt=2 / b_bias=0 / direct=3 / weightb=1 / open_gop=0 / weightp=2 / keyint=240 / keyint_min=23 / scenecut=40 / intra_refresh=0 / rc_lookahead=60 / rc=2pass / mbtree=0 / bitrate=1815 / ratetol=1.0 / qcomp=0.60 / qpmin=0:0:0 / qpmax=69:69:69 / qpstep=5 / cplxblur=20.0 / qblur=0.5 / vbv_maxrate=50000 / vbv_bufsize=62500 / nal_hrd=none / filler=0 / ip_ratio=1.40 / pb_ratio=1.30 / aq=1:1.00 / aq-sensitivity=10.00 / aq-factor=1.00:1.00:1.00 / aq2=0 / aq3=0 Язык : Английский По умолчанию : Да Принудительно : Нет Аудио Идентификатор : 2 Формат : AC-3 Формат/Информация : Audio Coding 3 Коммерческое название : Dolby Digital Идентификатор кодека : A_AC3 Продолжительность : 1 ч. 47 мин. Вид битрейта : Постоянный Битрейт : 384 Кбит/сек Канал(-ы) : 6 каналов Расположение каналов : L R C LFE Ls Rs Частота дискретизации : 48,0 КГц Частота кадров : 31,250 кадров/сек (1536 SPF) Метод сжатия : С потерями Размер потока : 295 Мбайт (17%) Заголовок : MVO - Кириллица Язык : Русский Вид сервиса : Complete Main По умолчанию : Да Принудительно : Нет Нормализация звука речи : -31 dB cmixlev : -4.5 dB surmixlev : -6 dB dialnorm_Average : -31 dB dialnorm_Minimum : -31 dB dialnorm_Maximum : -31 dB Текст Идентификатор : 3 Формат : UTF-8 Идентификатор кодека : S_TEXT/UTF8 Идентификатор кодека/Информация : UTF-8 Plain Text Продолжительность : 1 ч. 44 мин. Битрейт : 86 бит/сек Частота кадров : 0,269 кадр/сек Число элементов : 1691 Размер потока : 66,6 КиБ (0%) Заголовок : Язык : Русский По умолчанию : Нет Принудительно : Нет

Всего файлов в раздаче: 1 
La.mia.ombra.e.tua.2022.WEB-DLRip-AVC_от New-Team_by_JNS82.mkv1.65 GB

Похожие раздачи по запросу - Поездка
2024-05-17 magnet Поездка с мамой / Driving Mum (2022) WEB-DL 1080p | L1 3.19 GB ↑ 0 ↓ 0
2024-04-30 magnet Поездка в Милан / Моя тень - твоя / La mia ombra è tua / My Shadow Is Your Shadow (2022) WEB-DL 1080p от селезень | P | Кириллица | KION 5.06 GB ↑ 0 ↓ 0
2024-04-29 magnet Поездка в Милан / Моя тень - твоя / La mia ombra è tua / My Shadow Is Your Shadow (2022) WEB-DLRip | P 1.46 GB ↑ 0 ↓ 0
2024-04-29 magnet Поездка в Милан / Моя тень - твоя / La mia ombra è tua / My Shadow Is Your Shadow (2022) WEB-DL 1080p | P 4.60 GB ↑ 0 ↓ 0
2024-04-25 magnet Замечательная поездка / The Grand Tour / Timescape (1991) WEB-DL 1080p | P2, A 7.21 GB ↑ 0 ↓ 0
2024-04-04 magnet Поездка / I onde dager / The Trip (2021) HDRip-AVC от DoMiNo | L2, A 2.89 GB ↑ 0 ↓ 0
2022-05-06 magnet На пределе / Ночная поездка / Nightride (2021) WEB-DLRip-HEVC 1080p от DoMiNo | iTunes 1.78 GB ↑ 0 ↓ 0

Комментарии


Зарегистрируйтесь чтобы добавить комментарий
Торрент клиент
byTorrent - программа для загрузки торрент-файлов.

Скачать byTorrent.exe (1,5 МБ)

Скачать byTorrent.zip (0,6 МБ)

Поддержи torrent.by
российских рублей
(300 российских рублей это 4$)

Обратная связь rss

End game ©