↑↓torrent.by
Поиск
Логин:  Регистрация
Пароль:

Парни со стволами / War Dogs (2016) BDRip 1080p от ExKinoRay | Лицензия

download Скачать торрент-файл   magnet Магнитная ссылка Размер: 11.51 GB Добавлен: 2024-04-29 17:00
Пиры будут получены из сети DHT
Последний сидер был замечен 2024-04-29 17:00
Информация о фильме Название: Парни со стволами Оригинальное название: War Dogs Год выхода: 2016 Жанр: Драма, комедия, военный Режиссер: Тодд Филлипс В ролях: Майлз Теллер, Джона Хилл, Стив Лэнц, Грегг Уэйнер, Эдди Джемисон, Джулиан Сержи, Дэниэл Берсон, Эдсон Жан, Брэдли Купер О фильме: Реальная история о приятелях-планокурах из Майами, умудрившихся выбить в Пентагоне контракт на 300 миллионов долларов на поставку оружия. Страна: США Студия: Green Hat Films, Mark Gordon Company Продолжительность: 01:54:13 Перевод: Дублированный | Лицензия Blu-Ray CEE Файл Кодек: MPEG-4 Качество: BDRip 1080p Видео: 1920x800, 12.3 Mbit/s, 23.976 fps Звук: Аудио #01: 48 kHz, AC3, 5.1, 640 Kbps | Дублированный | Аудио #02: 48 kHz, DTS, 5.1, 1510 kbps | Оригинал | Субтитры: Русские (forced, full), английские
[+] MIGeneral Unique ID : 214979705620843263237139247210405519267 (0xA1BB95D2E21EB27AB0C615EE99235FA3) Complete name : G:VideoWar.Dogs.2016.D.BDRip.1080p.ExKinoRay.mkv Format : Matroska Format version : Version 4 / Version 2 File size : 11.5 GiB Duration : 1 h 54 min Overall bit rate : 14.4 Mb/s Movie name : War.Dogs.2016 ***селезень*** Encoded date : UTC 2016-11-23 02:26:03 Writing application : mkvmerge v8.3.0 ('Over the Horizon') 64bit Writing library : libebml v1.3.1 + libmatroska v1.4.2 Video ID : 1 Format : AVC Format/Info : Advanced Video Codec Format profile : High@L4.1 Format settings, CABAC : Yes Format settings, ReFrames : 5 frames Codec ID : V_MPEG4/ISO/AVC Duration : 1 h 54 min Bit rate : 12.3 Mb/s Width : 1 920 pixels Height : 800 pixels Display aspect ratio : 2.40:1 Frame rate mode : Constant Frame rate : 23.976 (24000/1001) FPS Color space : YUV Chroma subsampling : 4:2:0 Bit depth : 8 bits Scan type : Progressive Bits/(Pixel*Frame) : 0.333 Stream size : 9.79 GiB (85%) Title : War.Dogs.2016 ***селезень*** Writing library : x264 core 129 r2245 bc13772 Encoding settings : cabac=1 / ref=5 / deblock=1:-3:-3 / analyse=0x3:0x133 / me=umh / subme=11 / psy=1 / psy_rd=1.05:0.05 / mixed_ref=1 / me_range=64 / chroma_me=1 / trellis=2 / 8x8dct=1 / cqm=0 / deadzone=21,11 / fast_pskip=0 / chroma_qp_offset=-3 / threads=12 / lookahead_threads=2 / sliced_threads=0 / nr=0 / decimate=1 / interlaced=0 / bluray_compat=0 / constrained_intra=0 / bframes=8 / b_pyramid=2 / b_adapt=2 / b_bias=0 / direct=3 / weightb=1 / open_gop=0 / weightp=2 / keyint=250 / keyint_min=23 / scenecut=40 / intra_refresh=0 / rc_lookahead=60 / rc=2pass / mbtree=1 / bitrate=12280 / ratetol=1.0 / qcomp=0.60 / qpmin=0 / qpmax=69 / qpstep=4 / cplxblur=20.0 / qblur=0.5 / vbv_maxrate=40000 / vbv_bufsize=30000 / nal_hrd=none / ip_ratio=1.40 / aq=1:0.80 Language : English Default : Yes Forced : No Audio #1 ID : 2 Format : AC-3 Format/Info : Audio Coding 3 Mode extension : CM (complete main) Format settings, Endianness : Big Codec ID : A_AC3 Duration : 1 h 54 min Bit rate mode : Constant Bit rate : 640 kb/s Channel(s) : 6 channels Channel positions : Front: L C R, Side: L R, LFE Sampling rate : 48.0 kHz Frame rate : 31.250 FPS (1536 spf) Bit depth : 16 bits Compression mode : Lossy Stream size : 523 MiB (4%) Title : DUB Language : Russian Default : Yes Forced : No Audio #2 ID : 3 Format : DTS Format/Info : Digital Theater Systems Mode : 16 Format settings, Endianness : Big Codec ID : A_DTS Duration : 1 h 54 min Bit rate mode : Constant Bit rate : 1 509 kb/s Channel(s) : 6 channels Channel positions : Front: L C R, Side: L R, LFE Sampling rate : 48.0 kHz Frame rate : 93.750 FPS (512 spf) Bit depth : 24 bits Compression mode : Lossy Stream size : 1.20 GiB (10%) Title : Original Language : English Default : No Forced : No Text #1 ID : 4 Format : UTF-8 Codec ID : S_TEXT/UTF8 Codec ID/Info : UTF-8 Plain Text Duration : 1 h 48 min Bit rate : 2 b/s Count of elements : 42 Stream size : 1.77 KiB (0%) Title : Forced Language : Russian Default : Yes Forced : No Text #2 ID : 5 Format : UTF-8 Codec ID : S_TEXT/UTF8 Codec ID/Info : UTF-8 Plain Text Duration : 1 h 53 min Bit rate : 110 b/s Count of elements : 1297 Stream size : 91.5 KiB (0%) Title : Full Language : Russian Default : No Forced : No Text #3 ID : 6 Format : UTF-8 Codec ID : S_TEXT/UTF8 Codec ID/Info : UTF-8 Plain Text Duration : 1 h 47 min Bit rate : 71 b/s Count of elements : 1773 Stream size : 56.2 KiB (0%) Title : Full Language : English Default : No Forced : No Text #4 ID : 7 Format : UTF-8 Codec ID : S_TEXT/UTF8 Codec ID/Info : UTF-8 Plain Text Duration : 1 h 47 min Bit rate : 76 b/s Count of elements : 1921 Stream size : 60.3 KiB (0%) Title : SDH Language : English Default : No Forced : No Menu 00:00:00.000 : en:Chapter 01 00:10:13.487 : en:Chapter 02 00:19:00.848 : en:Chapter 03 00:30:21.110 : en:Chapter 04 00:40:02.149 : en:Chapter 05 00:50:56.178 : en:Chapter 06 00:59:34.237 : en:Chapter 07 01:10:59.213 : en:Chapter 08 01:20:08.720 : en:Chapter 09 01:32:06.020 : en:Chapter 10 01:39:36.011 : en:Chapter 11 01:48:19.117 : en:Chapter 12
Релиз от: Автор релиза:

Всего файлов в раздаче: 1 
War.Dogs.2016.D.BDRip.1080p.ExKinoRay.mkv11.51 GB

Похожие раздачи по запросу - Парни
2024-05-08 magnet Славные парни / Goodfellas (1990) BDRip-HEVC 1080p от RIPS CLUB | D, P, P2, A | 25th Anniversary Edition 16.87 GB ↑ 0 ↓ 0
2024-04-29 magnet Парни со стволами / War Dogs (2016) WEB-DLRip-AVC от DoMiNo | D | Open Matte 2.22 GB ↑ 0 ↓ 0
2022-06-06 magnet Плохие парни / The Bad Guys (2022) BDRip 720p от селезень | D, P 7.80 GB ↑ 0 ↓ 0
2022-05-04 magnet Плохие парни / The Bad Guys (2022) WEB-DLRip 720p от DoMiNo | Jaskier 2К3.06 GB ↑ 0 ↓ 0
2022-04-12 magnet Парни под прикрытием / Panama (2022) WEB-DLRip от ELEKTRI4KA | iTunes 1.46 GB ↑ 0 ↓ 0

Кто качает (только для создателя раздачи и модераторов): Локальные пиры отсутствуют

Комментарии


Зарегистрируйтесь чтобы добавить комментарий
Торрент клиент
byTorrent - программа для загрузки торрент-файлов.

Скачать byTorrent.exe (1,5 МБ)

Скачать byTorrent.zip (0,6 МБ)

Поддержи torrent.by
российских рублей
(300 российских рублей это 4$)

Обратная связь rss

End game ©