↑↓torrent.by
Поиск
Логин:  Регистрация
Пароль:

Ректор [S01] (2024) WEBRip-AVC от Generalfilm | КПК

download Скачать торрент-файл   magnet Магнитная ссылка Размер: 931.20 MB Добавлен: 2024-04-29 17:00
Пиры будут получены из сети DHT
Последний сидер был замечен 2024-05-05 13:11
Информация о фильме Оригинальное название: Ректор Год выпуска: 2024 Жанр: Комедия, драма Режиссер: Роман Фокин В ролях: Владимир Канухин, Анастасия Шукевич, Елена Морозова, Михаил Горевой, Виктория Полторак, Никита Санаев, Даниил Спиваковский, Ирина Низина, Илья Андрей Лавров О сериале: Лаврентий Семенович Тимошин, или попросту Лаврик, — молодой, перспективный, но очень тревожный кандидат наук, возглавляющий лабораторию биохимии серьезного НИУ и уже не первый год разрабатывающий лекарство от страха. Главным образом — от своего собственного. Лаврик боится всего — научных свершений, гнева матери, любви и реформ в НИУ. Последние не заставляют себя ждать. Ректор института Богомолов, который уже давно занимает эту должность, хочет уступить свой пост молодому поколению, и Лаврик — лучшая кандидатура. Только станет ли эта должность благом для Лаврика и позволит ли она все-таки завершить его исследование, особенно когда столь крутые изменения выходят далеко за пределы карьерного роста? Страна: Россия Студия: Кинокомпания "Студия творческих инициатив «Открытие»", "Институт развития интернета" Продолжительность: 8 х ~ 00:25:00 Перевод: Не требуется Файл Формат: MP4 Качество: WEBRip-AVC Видео: MPEG-4 AVC (x264), 640x272, ~ 500 kbps, 25.000 fps Аудио: AAC LC, 48.0 KHz, 2 ch, 128 Kbps Субтитры: Нет
[+] Скриншоты
[+] MIComplete name : D:киноRektor.S01.2024.WEBRip-AVC.KPK.GFRektor.s01e02.2024.WEBRip-AVC.KPK.GF.mp4 Format : MPEG-4 Codec ID : M4V (isom/iso2/avc1) File size : 121 MiB Duration : 26mn 45s Overall bit rate mode : Variable Overall bit rate : 634 Kbps Writing application : Lavf53.19.0 Video ID : 1 Format : AVC Format/Info : Advanced Video Codec Format profile : High@L4.1 Format settings, CABAC : Yes Format settings, ReFrames : 8 frames Codec ID : avc1 Codec ID/Info : Advanced Video Coding Duration : 26mn 45s Bit rate : 500 Kbps Width : 640 pixels Height : 272 pixels Display aspect ratio : 2.35:1 Frame rate mode : Constant Frame rate : 25.000 fps Color space : YUV Chroma subsampling : 4:2:0 Bit depth : 8 bits Scan type : Progressive Bits/(Pixel*Frame) : 0.115 Stream size : 95.6 MiB (79%) Writing library : x264 core 146 r2538 121396c Encoding settings : cabac=1 / ref=8 / deblock=1:-1:-1 / analyse=0x3:0x133 / me=umh / subme=10 / psy=1 / psy_rd=1.00:0.00 / mixed_ref=1 / me_range=24 / chroma_me=1 / trellis=2 / 8x8dct=1 / cqm=0 / deadzone=21,11 / fast_pskip=1 / chroma_qp_offset=-2 / threads=3 / lookahead_threads=1 / sliced_threads=0 / nr=0 / decimate=1 / interlaced=0 / bluray_compat=0 / constrained_intra=0 / bframes=8 / b_pyramid=2 / b_adapt=2 / b_bias=0 / direct=3 / weightb=1 / open_gop=0 / weightp=2 / keyint=250 / keyint_min=126 / scenecut=40 / intra_refresh=0 / rc_lookahead=40 / rc=2pass / mbtree=1 / bitrate=500 / ratetol=1.0 / qcomp=0.60 / qpmin=0 / qpmax=69 / qpstep=4 / cplxblur=20.0 / qblur=0.5 / ip_ratio=1.40 / aq=1:1.00 Menus : 3 Audio ID : 2 Format : AAC Format/Info : Advanced Audio Codec Format profile : LC Codec ID : 40 Duration : 26mn 45s Bit rate mode : Variable Bit rate : 128 Kbps Channel(s) : 2 channels Channel positions : Front: L R Sampling rate : 48.0 KHz Frame rate : 46.875 fps (1024 spf) Compression mode : Lossy Stream size : 24.5 MiB (20%) Default : Yes Alternate group : 1 Menus : 3
Релиз от:

Всего файлов в раздаче: 8 
Rektor.s01e01.2024.WEBRip-AVC.KPK.GF.mp4116.84 MB
Rektor.s01e02.2024.WEBRip-AVC.KPK.GF.mp4121.25 MB
Rektor.s01e03.2024.WEBRip-AVC.KPK.GF.mp4115.10 MB
Rektor.s01e04.2024.WEBRip-AVC.KPK.GF.mp4113.72 MB
Rektor.s01e05.2024.WEBRip-AVC.KPK.GF.mp4116.52 MB
Rektor.s01e06.2024.WEBRip-AVC.KPK.GF.mp4115.72 MB
Rektor.s01e07.2024.WEBRip-AVC.KPK.GF.mp4115.98 MB
Rektor.s01e08.2024.WEBRip-AVC.KPK.GF.mp4116.07 MB

Похожие раздачи по запросу - Ректор
2024-04-27 magnet Ректор [S01] (2024) WEBRip 720p 4.48 GB ↑ 0 ↓ 0
2024-04-26 magnet Ректор [S01] (2024) WEBRip-AVC от Files-x 2.57 GB ↑ 0 ↓ 0
2024-04-25 magnet Ректор [S01] (2024) WEB-DLRip от от Files-x 2.51 GB ↑ 0 ↓ 0
2024-04-25 magnet Ректор [S01] (2024) WEBRip 1080p от ExKinoRay 6.57 GB ↑ 0 ↓ 0

Кто качает (только для создателя раздачи и модераторов): Локальные пиры отсутствуют

Комментарии


Зарегистрируйтесь чтобы добавить комментарий
Торрент клиент
byTorrent - программа для загрузки торрент-файлов.

Скачать byTorrent.exe (1,5 МБ)

Скачать byTorrent.zip (0,6 МБ)

Поддержи torrent.by
российских рублей
(300 российских рублей это 4$)

Обратная связь rss

End game ©