↑↓torrent.by
Поиск
Логин:  Регистрация
Пароль:

Джойка / Joika (2023) WEB-DL 1080p от ELEKTRI4KA | D

download Скачать торрент-файл   magnet Магнитная ссылка Размер: 2.86 GB Раздают: 0 Качают: 1 Добавлен: 2024-04-30 11:00
Пиры будут получены из сети DHT
Последний сидер был замечен вчера в 19:35
Информация о фильме Название: Джойка Оригинальное название: Joika Год выхода: 2023 Жанр: драма Режиссер: Джеймс Напье В ролях: Талия Райдер, Дайан Крюгер, Борис Шиц, Олег Ивенко, Каролина Грушка, Томаш Кот, Шарлотта Уббен, Наташа Алдерсладе, Мартин Хью Хенли, Наталия Осипова, Сильвестр Пехура. О фильме: Джой Уомак — одна из немногих американок, которой удалось попасть в элитный мир русского балета. Невзирая на отговоры семьи и друзей, девушка отправляется в Россию и, подражая своим любимым русским балеринам, сражается за признание представителей лучшей балетной школы в мире. Но за красотой танца скрывается мир боли и жестокой конкуренции. Выпущено: США, Новая Зеландия / Anonymous Content, Be Hope Films, Embankment Films, Four Knights Film, Grupa Moderator, Ingenious Film Partners, Madants, Polski Instytut Sztuki Filmowe Продолжительность: 01:50:22 Озвучивание: Дублированное | Баритон Файл Формат: MKV Качество: WEB-DL 1080p | Локализованная версия Видео: MPEG-4 AVC, 2816 Kb/s, 1920x804 Аудио: Russian: AC3, 448 Kb/s (6 ch) / E-AC3, 448 Kb/s (6 ch) Субтитры: Russian (Forced) хардсаб. Дополнительно: Нет Релиз группы: Мы в Telegram:
[+] MediaInfo:Complete name : Dzhoyka.2023.WEB-DL.1080p.ELEKTRI4KA.mkv Format : Matroska Format version : Version 4 File size : 2.86 GiB Duration : 1 h 50 min Overall bit rate : 3 714 kb/s Movie name : Dzhoyka.2023.WEB-DL.1080p.ELEKTRI4KA. Encoded date : UTC 2024-04-29 10:52:30 Writing application : mkvmerge v8.3.0 ('Over the Horizon') 64bit Writing library : libebml v1.3.1 + libmatroska v1.4.2 Video ID : 1 Format : AVC Format/Info : Advanced Video Codec Format profile : High@L4 Format settings : CABAC / 5 Ref Frames Format settings, CABAC : Yes Format settings, Reference frames : 5 frames Codec ID : V_MPEG4/ISO/AVC Duration : 1 h 50 min Bit rate : 2 816 kb/s Width : 1 920 pixels Height : 804 pixels Display aspect ratio : 2.40:1 Frame rate mode : Constant Frame rate : 24.000 FPS Color space : YUV Chroma subsampling : 4:2:0 Bit depth : 8 bits Scan type : Progressive Bits/(Pixel*Frame) : 0.076 Stream size : 2.17 GiB (76%) Writing library : x264 core 157 Encoding settings : cabac=1 / ref=5 / deblock=1:0:0 / analyse=0x3:0x133 / me=umh / subme=10 / psy=1 / psy_rd=1.00:0.00 / mixed_ref=1 / me_range=24 / chroma_me=1 / trellis=2 / 8x8dct=1 / cqm=0 / deadzone=21,11 / fast_pskip=1 / chroma_qp_offset=-2 / threads=25 / lookahead_threads=4 / sliced_threads=0 / nr=0 / decimate=1 / interlaced=0 / bluray_compat=0 / stitchable=1 / constrained_intra=0 / bframes=8 / b_pyramid=2 / b_adapt=2 / b_bias=0 / direct=3 / weightb=1 / open_gop=0 / weightp=2 / keyint=250 / keyint_min=24 / scenecut=40 / intra_refresh=0 / rc_lookahead=96 / rc=crf / mbtree=1 / crf=18.5 / qcomp=0.60 / qpmin=0 / qpmax=69 / qpstep=4 / ip_ratio=1.40 / aq=1:1.00 Default : Yes Forced : No Color range : Limited Color primaries : BT.709 Transfer characteristics : BT.709 Matrix coefficients : BT.709 Audio #1 ID : 2 Format : AC-3 Format/Info : Audio Coding 3 Commercial name : Dolby Digital Codec ID : A_AC3 Duration : 1 h 50 min Bit rate mode : Constant Bit rate : 448 kb/s Channel(s) : 6 channels Channel layout : L R C LFE Ls Rs Sampling rate : 48.0 kHz Frame rate : 31.250 FPS (1536 SPF) Compression mode : Lossy Stream size : 354 MiB (12%) Title : DUB AC3 (Bariton) Language : Russian Service kind : Complete Main Default : Yes Forced : Yes Audio #2 ID : 3 Format : E-AC-3 Format/Info : Enhanced AC-3 Commercial name : Dolby Digital Plus Codec ID : A_EAC3 Duration : 1 h 50 min Bit rate mode : Constant Bit rate : 448 kb/s Channel(s) : 6 channels Channel layout : L R C LFE Ls Rs Sampling rate : 48.0 kHz Frame rate : 31.250 FPS (1536 SPF) Compression mode : Lossy Stream size : 354 MiB (12%) Title : DUB EAC3 (Bariton) Language : Russian Service kind : Complete Main Default : No Forced : No
[+] Скриншоты

Всего файлов в раздаче: 1 
Dzhoyka.2023.WEB-DL.1080p.ELEKTRI4KA.mkv2.86 GB

Похожие раздачи по запросу - Джойка
2024-04-30 magnet Джойка / Joika (2023) WEB-DLRip от ELEKTRI4KA | D 1.46 GB ↑ 0 ↓ 0
2024-04-14 magnet Джойка / Joika (2023) WEB-DLRip-AVC от JNS82 | D | TS 2.18 GB ↑ 0 ↓ 0

Комментарии


Зарегистрируйтесь чтобы добавить комментарий
Торрент клиент
byTorrent - программа для загрузки торрент-файлов.

Скачать byTorrent.exe (1,5 МБ)

Скачать byTorrent.zip (0,6 МБ)

Поддержи torrent.by
российских рублей
(300 российских рублей это 4$)

Обратная связь rss

End game ©