↑↓torrent.by
Поиск
Логин:  Регистрация
Пароль:

Патхан. Схватка со смертью / Pathaan (2023) BDRip-AVC от DoMiNo & селезень | D

download Скачать торрент-файл   magnet Магнитная ссылка Размер: 2.81 GB Раздают: 1 Качают: 0 Добавлен: 2024-04-30 17:00
Пиры будут получены из сети DHT
Последний сидер был замечен сегодня в 08:29
Информация о фильме Название: Патхан. Схватка со смертью Оригинальное название: Pathaan Год выпуска: 2023 Жанр: боевик, триллер, приключения Режиссер: Сиддхарт Ананд В ролях: Шах Рукх Кхан, Джон Абрахам, Дипика Падукон, Димпл Кападиа, Ашутош Рана, Салман Кхан, Аакаш Бхатиджа, Пракаш Белавади, Вираф Патель, Шаджи Чаудхари Описание: Спецагент Патхан получает информацию о готовящемся масштабном теракте в Индии. Используя свои выдающиеся шпионские и боевые навыки, он идет по следу безжалостного наемника Джима, чтобы нарушить его планы и предотвратить катастрофу. Патхан вступает в смертельную битву, ставка в которой — будущее всей страны. Выпущено: Индия / Yash Raj Films Продолжительность: 02:26:09 Перевод: Профессиональный (полное дублирование) | The Kitchen Russia* Субтитры: Русские (Full), английские (Full, SDH) - (Amazon) Файл Формат: Matroska Качество: BDRip-AVC Видео: 1024x428 at 24.000 fps, x264@L4.1, ~2304 kbps Аудио: AC3, 6 ch, ~448 kbps - | Русский | Формат субтитров: softsub (SRT) ***Рип от: -=DoMiNo=-
[+] Примечания:* Так как дублирована сокращенная версия, присутствуют вставки озвучки от Honey&Haseena.
[+] M/IGeneral Unique ID : 247140856792633183959814294115331624550 (0xB9ED99001AC268584959D4D00C044E66) Complete name : O:Pathaan.2023.DUB.BDRip.x264.seleZen.mkv Format : Matroska Format version : Version 4 File size : 2.81 GiB Duration : 2 h 26 min Overall bit rate : 2 754 kb/s Frame rate : 24.000 FPS Movie name : Pathaan.2023.DUB.BDRip.x264.seleZen Encoded date : 2023-08-19 18:16:03 UTC Writing application : mkvmerge v78.0 ('Running') 64-bit Writing library : libebml v1.4.4 + libmatroska v1.7.1 Cover : Yes Attachments : cover.jpg / small_cover.jpg Video ID : 1 Format : AVC Format/Info : Advanced Video Codec Format profile : High@L4.1 Format settings : CABAC / 12 Ref Frames Format settings, CABAC : Yes Format settings, Reference : 12 frames Codec ID : V_MPEG4/ISO/AVC Duration : 2 h 26 min Bit rate : 2 304 kb/s Width : 1 024 pixels Height : 428 pixels Display aspect ratio : 2.40:1 Frame rate mode : Constant Frame rate : 24.000 FPS Color space : YUV Chroma subsampling : 4:2:0 Bit depth : 8 bits Scan type : Progressive Bits/(Pixel*Frame) : 0.219 Stream size : 2.35 GiB (84%) Title : -=DoMiNo=- Writing library : x264 core 164 r3107+58M ae98796 t_mod_New | by -=DoMiNo=- | X86_64] Encoding settings : cabac=1 / ref=12 / deblock=1:-2:-2 / analyse=0x3:0x133 / me=umh / subme=10 / psy=1 / fade_compensate=0.00 / psy_rd=1.05:0.00 / mixed_ref=1 / me_range=40 / chroma_me=1 / trellis=2 / 8x8dct=1 / cqm=0 / deadzone=21,11 / fast_pskip=0 / chroma_qp_offset=-2 / threads=17 / lookahead_threads=3 / sliced_threads=0 / nr=0 / decimate=1 / interlaced=0 / bluray_compat=0 / constrained_intra=0 / fgo=0 / bframes=12 / b_pyramid=2 / b_adapt=2 / b_bias=0 / direct=3 / weightb=1 / open_gop=0 / weightp=2 / keyint=240 / keyint_min=24 / scenecut=40 / intra_refresh=0 / rc_lookahead=60 / rc=crf / mbtree=0 / crf=18.8000 / qcomp=0.70 / qpmin=0:0:0 / qpmax=69:69:69 / qpstep=4 / vbv_maxrate=50000 / vbv_bufsize=62500 / crf_max=0.0 / nal_hrd=none / filler=0 / ip_ratio=1.28 / pb_ratio=1.30 / aq=3:0.90 / aq-sensitivity=10.00 / aq-factor=1.00:1.00:1.00:1.00 / aq2=0 / aq3=0 Language : English Default : Yes Forced : No Color range : Limited Color primaries : BT.709 Transfer characteristics : BT.709 Matrix coefficients : BT.709 Audio ID : 2 Format : AC-3 Format/Info : Audio Coding 3 Commercial name : Dolby Digital Codec ID : A_AC3 Duration : 2 h 26 min Bit rate mode : Constant Bit rate : 448 kb/s Channel(s) : 6 channels Channel layout : L R C LFE Ls Rs Sampling rate : 48.0 kHz Frame rate : 31.250 FPS (1536 SPF) Compression mode : Lossy Stream size : 468 MiB (16%) Title : Dub - The Kitchen Russia Language : Russian Service kind : Complete Main Default : Yes Forced : No Text #1 ID : 3 Format : UTF-8 Codec ID : S_TEXT/UTF8 Codec ID/Info : UTF-8 Plain Text Duration : 2 h 22 min Bit rate : 77 b/s Frame rate : 0.177 FPS Count of elements : 1522 Stream size : 81.2 KiB (0%) Language : Russian Default : No Forced : No Text #2 ID : 4 Format : UTF-8 Codec ID : S_TEXT/UTF8 Codec ID/Info : UTF-8 Plain Text Duration : 2 h 21 min Bit rate : 39 b/s Frame rate : 0.186 FPS Count of elements : 1577 Stream size : 40.8 KiB (0%) Language : English Default : No Forced : No Text #3 ID : 5 Format : UTF-8 Codec ID : S_TEXT/UTF8 Codec ID/Info : UTF-8 Plain Text Duration : 2 h 23 min Bit rate : 52 b/s Frame rate : 0.225 FPS Count of elements : 1935 Stream size : 54.8 KiB (0%) Title : English Language : English Default : No Forced : No Menu 00:00:00.000 : en:Глава 01 00:11:20.458 : en:Глава 02 00:20:59.041 : en:Глава 03 00:35:33.000 : en:Глава 04 00:40:08.458 : en:Глава 05 00:48:08.333 : en:Глава 06 00:58:17.166 : en:Глава 07 01:10:03.375 : en:Глава 08 01:24:12.250 : en:Глава 09 01:36:22.583 : en:Глава 10 01:49:50.625 : en:Глава 11 01:58:38.541 : en:Глава 12 02:12:44.208 : en:Глава 13 02:17:51.291 : en:Глава 14
Релиз: Присоединяйся к: Кликай на баннеры.

Всего файлов в раздаче: 1 
Pathaan.2023.DUB.BDRip.x264.seleZen.mkv2.81 GB

Комментарии


Зарегистрируйтесь чтобы добавить комментарий
Торрент клиент
byTorrent - программа для загрузки торрент-файлов.

Скачать byTorrent.exe (1,5 МБ)

Скачать byTorrent.zip (0,6 МБ)

Поддержи torrent.by
российских рублей
(300 российских рублей это 4$)

Обратная связь rss

End game ©