↑↓torrent.by
Поиск
Логин:  Регистрация
Пароль:

Я плюю на ваши могилы 3 / I Spit on Your Grave 3 (2015) BDRip 720p от k.e.n & NNMClub | Р, L2

download Скачать торрент-файл   magnet Магнитная ссылка Размер: 3.78 GB Добавлен: 2024-05-01 05:00
Пиры будут получены из сети DHT
Последний сидер был замечен 2024-05-01 20:38
Я плюю на ваши могилы 3 / I Spit on Your Grave 3 (2015) BDRip 720p Производство: США, Cinetel Films Жанр: Триллер, ужасы Режиссер: Р.Д. Браунштейн Продюсер: Лиза М. Хансен, Пол Хертцберг, Энтони Фанкхаузер Актеры: Сара Батлер, Гэбриел Хоган, Даг МакКиэн, Карен Страссман, Дженнифер Лэндон, Кори Крэйг, Бобби Рид, Лони Перрин, Джошуа Ковальчик Описание: Фильм продолжает историю Дженнифер, которая работает в службе кризисной горячей линии. Серийный убийца использует службу для выбора новых жертв. Из-за прошлого Дженнифер становится объектом внимания детективов, расследующих эти преступления. Но на самом ли деле она — тот убийца, которого они ищут? Дата мировой премьеры: 9 октября 2015 Дата премьеры в РФ: 1 октября 2015, «All Media» Продолжительность: 01:31:31 Качество видео: BDRip 720p Перевод: Профессиональный многоголосый (iTunes), любительский двухголосый (Line Master`s) Субтитры: Испанский, английский Видео: AVC, 1280x532 (2.40:1), 23.976 fps, 4 500 Kbps (0.276 bit/pixel) Аудио #1: AC-3, 48.0 KHz, 6 ch, 384 Kbps, CBR (Russian) - многоголосый Аудио #2: AC-3, 48.0 KHz, 2 ch, 384 Kbps, CBR (Russian) - двухголосый Аудио #3: AC-3, 48.0 KHz, 6 ch, 640 Kbps, CBR (English) - оригинал Сэмпл Скриншоты:
[+] Mediainfo: Формат : Matroska Версия формата : Version 2 Размер файла : 3,78 Гбайт Продолжительность : 1 ч. 31 м. Общий поток : 5848 Кбит/сек Дата кодирования : UTC 2015-10-23 04:39:00 Программа кодирования : mkvmerge v5.3.0 ('I could have danced') built on Feb 9 2012 10:38:07 Библиотека кодирования : libebml v1.2.3 + libmatroska v1.3.0 Attachment : Yes Видео Идентификатор : 1 Формат : AVC Формат/Информация : Advanced Video Codec Профиль формата : High@L4.1 Параметр CABAC формата : Да Параметр ReFrames формата : 10 кадров Идентификатор кодека : V_MPEG4/ISO/AVC Продолжительность : 1 ч. 32 м. Битрейт : 4500 Кбит/сек Ширина : 1280 пикселей Высота : 532 пикселя Соотношение сторон : 2,40:1 Режим частоты кадров : Постоянный Частота кадров : 23,976 кадра/сек Цветовое пространство : YUV Субдискретизация насыщенности : 4:2:0 Битовая глубина : 8 бит Тип развёртки : Прогрессивная Бит/(Пиксели*Кадры) : 0.276 Размер потока : 2,80 Гбайт (74%) Библиотека кодирования : x264 core 146 r2538 121396c Настройки программы : cabac=1 / ref=10 / deblock=1:-3:-3 / analyse=0x3:0x133 / me=umh / subme=11 / psy=1 / psy_rd=1.00:0.00 / mixed_ref=1 / me_range=32 / chroma_me=1 / trellis=2 / 8x8dct=1 / cqm=0 / deadzone=21,11 / fast_pskip=0 / chroma_qp_offset=-2 / threads=12 / lookahead_threads=2 / sliced_threads=0 / nr=0 / decimate=0 / interlaced=0 / bluray_compat=0 / constrained_intra=0 / bframes=8 / b_pyramid=2 / b_adapt=2 / b_bias=0 / direct=3 / weightb=1 / open_gop=0 / weightp=2 / keyint=240 / keyint_min=23 / scenecut=40 / intra_refresh=0 / rc=2pass / mbtree=0 / bitrate=4500 / ratetol=1.0 / qcomp=0.60 / qpmin=0 / qpmax=69 / qpstep=4 / cplxblur=20.0 / qblur=0.5 / ip_ratio=1.40 / pb_ratio=1.30 / aq=1:0.70 Язык : English Default : Да Forced : Нет Аудио #1 Идентификатор : 2 Формат : AC-3 Формат/Информация : Audio Coding 3 Расширение режима : CM (complete main) Параметр Endianness формата : Big Идентификатор кодека : A_AC3 Продолжительность : 1 ч. 32 м. Вид битрейта : Постоянный Битрейт : 384 Кбит/сек Каналы : 6 каналов Расположение каналов : Front: L C R, Side: L R, LFE Частота : 48,0 КГц Битовая глубина : 16 бит Метод сжатия : С потерями Размер потока : 254 Мбайт (7%) Заголовок : Профессиональный многоголосый (Офиц) Язык : Russian Default : Да Forced : Нет Аудио #2 Идентификатор : 3 Формат : AC-3 Формат/Информация : Audio Coding 3 Расширение режима : CM (complete main) Параметр Endianness формата : Big Идентификатор кодека : A_AC3 Продолжительность : 1 ч. 32 м. Вид битрейта : Постоянный Битрейт : 384 Кбит/сек Каналы : 2 канала Расположение каналов : Front: L R Частота : 48,0 КГц Битовая глубина : 16 бит Метод сжатия : С потерями Размер потока : 254 Мбайт (7%) Заголовок : DVO Язык : Russian Default : Нет Forced : Нет Аудио #3 Идентификатор : 4 Формат : AC-3 Формат/Информация : Audio Coding 3 Расширение режима : CM (complete main) Параметр Endianness формата : Big Идентификатор кодека : A_AC3 Продолжительность : 1 ч. 32 м. Вид битрейта : Постоянный Битрейт : 640 Кбит/сек Каналы : 6 каналов Расположение каналов : Front: L C R, Side: L R, LFE Частота : 48,0 КГц Битовая глубина : 16 бит Метод сжатия : С потерями Размер потока : 424 Мбайт (11%) Язык : English Default : Нет Forced : Нет Текст #1 Идентификатор : 5 Формат : UTF-8 Идентификатор кодека : S_TEXT/UTF8 Идентификатор кодека/Информация : UTF-8 Plain Text Язык : Spanish Default : Нет Forced : Нет Текст #2 Идентификатор : 6 Формат : UTF-8 Идентификатор кодека : S_TEXT/UTF8 Идентификатор кодека/Информация : UTF-8 Plain Text Язык : English Default : Нет Forced : Нет Меню 00:00:00.000 : en:Chapter 01 00:06:34.394 : en:Chapter 02 00:14:42.047 : en:Chapter 03 00:20:19.218 : en:Chapter 04 00:28:29.541 : en:Chapter 05 00:39:15.019 : en:Chapter 06 00:47:19.044 : en:Chapter 07 00:58:44.354 : en:Chapter 08 01:08:09.752 : en:Chapter 09 01:12:49.531 : en:Chapter 10 01:18:53.729 : en:Chapter 11 01:27:29.911 : en:Chapter 12 01:31:30.485 : en:Chapter 13

Всего файлов в раздаче: 1 
Я плюю на ваши могилы-3. 2015 (С.Батлер).mkv3.78 GB

Похожие раздачи по запросу - плюю
2024-05-09 magnet Я плюю на ваши могилы 3 / I Spit on Your Grave 3 (2015) BDRip 720p от Leonardo | iPad | iTunes 1.44 GB ↑ 0 ↓ 0

Комментарии


Зарегистрируйтесь чтобы добавить комментарий
Торрент клиент
byTorrent - программа для загрузки торрент-файлов.

Скачать byTorrent.exe (1,5 МБ)

Скачать byTorrent.zip (0,6 МБ)

Поддержи torrent.by
российских рублей
(300 российских рублей это 4$)

Обратная связь rss

End game ©