↑↓torrent.by
Поиск
Логин:  Регистрация
Пароль:

Оленёнок / Baby Reindeer [S01] (2024) UHD WEB-DL-HEVC 2160p | 4K | HDR | Dolby Vision Profile 8 | HDrezka Studio

download Скачать торрент-файл   magnet Магнитная ссылка Размер: 33.36 GB Раздают: 0 Качают: 1 Добавлен: 2024-05-01 05:00
Пиры будут получены из сети DHT
Последний сидер был замечен 2024-05-08 22:13
Название: Оленёнок Оригинальное название: Baby Reindeer Год выхода: 2024 Производство: Великобритания / Clerkenwell Films Жанр: Драма Перевод: Профессиональный многоголосый Продолжительность: 07х 00:43:00 Режиссёр: Жозефин Борнебуш В ролях: Джессика Ганнинг, Дэнни Киррейн, Хью Коулз, Ричард Гэдд, Хлоя Драйвер, Том Гудман-Хилл, Джэми Мичи, Джо Боун, Чарли Бентли, Гай Роббинс, Николь Шоу Описание: Лондон, 2015 год. Молодой неудачник Донни Данн пытается реализоваться в комедии, а пока живёт у мамы своей бывшей девушки и работает в баре. Однажды он из жалости за счёт заведения угощает чаем полную женщину за 40, а та начинает обсыпать его комплиментами. Новую знакомую зовут Марта Скотт, и теперь она приходит в бар каждый день, навязчиво общается с Донни, называя его Оленёнком, и всячески намекает на свидание. Тот вяло отшучивается, но вскоре узнаёт, что стал предметом обожания уже судимой сталкерши. Формат: MKV Качество: WEB-DL (2160p) Hybrid Видео: MPEG-H/HEVC, ~19.2 Мбит/с, 3840x2160, 25.000 кадр/с Аудио 01: AC-3, 2ch, 192 kbps - Русский MVO (HDRezka) Аудио 02: E-AC3 JOC, 6ch, 768 kbps - Английский Субтитры: Русские, английские
[+] MediainfoОбщее Уникальный идентификатор : 104194144149303262151799186472130000324 (0x4E630FEDF5232314B02F84E2DF5735C4) Полное имя : E:Baby.Reindeer.S01.2160p.NF.WEB-DL.DV.HDR.H.265Baby.Reindeer.S01E03.2160p.NF.WEB-DL.DV.HDR.H.265.mkv Формат : Matroska Версия формата : Version 4 Размер файла : 5,43 Гбайт Продолжительность : 38 м. 30 с. Общий поток : 20,2 Мбит/сек Частота кадров : 25,000 кадров/сек Дата кодирования : 2024-04-28 11:18:56 UTC Программа кодирования : mkvmerge v81.0 ('Milliontown') 64-bit Библиотека кодирования : libebml v1.4.4 + libmatroska v1.7.1 Видео Идентификатор : 1 Формат : HEVC Формат/Информация : High Efficiency Video Coding Профиль формата : Main 10@L5@Main HDR format : Dolby Vision, Version 1.0, dvhe.08.07, BL+RPU, HDR10 compatible / SMPTE ST 2086, HDR10 compatible Идентификатор кодека : V_MPEGH/ISO/HEVC Продолжительность : 38 м. 30 с. Битрейт : 19,2 Мбит/сек Ширина : 3 840 пикселей Высота : 2 160 пикселей Соотношение сторон : 16:9 Режим частоты кадров : Постоянный Частота кадров : 25,000 кадров/сек Цветовое пространство : YUV Субдискретизация насыщенности : 4:2:0 (Type 2) Битовая глубина : 10 бит Бит/(Пиксели*Кадры) : 0.093 Размер потока : 5,17 Гбайт (95%) Язык : English Default : Да Forced : Нет Цветовой диапазон : Limited Основные цвета : BT.2020 Характеристики трансфера : PQ Коэффициенты матрицы : BT.2020 non-constant Mastering display color primaries : Display P3 Mastering display luminance : min: 0.0001 cd/m2, max: 1000 cd/m2 Maximum Content Light Level : 103 cd/m2 Maximum Frame-Average Light Level : 26 cd/m2 Аудио #1 Идентификатор : 2 Формат : AC-3 Формат/Информация : Audio Coding 3 Коммерческое название : Dolby Digital Идентификатор кодека : A_AC3 Продолжительность : 38 м. 30 с. Вид битрейта : Постоянный Битрейт : 192 Кбит/сек Каналы : 2 канала Channel layout : L R Частота : 48,0 КГц Частота кадров : 31,250 кадров/сек (1536 SPF) Метод сжатия : С потерями Размер потока : 52,9 Мбайт (1%) Заголовок : HDRezka Язык : Russian Service kind : Complete Main Default : Да Forced : Нет Аудио #2 Идентификатор : 3 Формат : E-AC-3 JOC Формат/Информация : Enhanced AC-3 with Joint Object Coding Коммерческое название : Dolby Digital Plus with Dolby Atmos Идентификатор кодека : A_EAC3 Продолжительность : 38 м. 30 с. Вид битрейта : Постоянный Битрейт : 768 Кбит/сек Каналы : 6 каналов Channel layout : L R C LFE Ls Rs Частота : 48,0 КГц Частота кадров : 31,250 кадров/сек (1536 SPF) Метод сжатия : С потерями Размер потока : 212 Мбайт (4%) Язык : English Service kind : Complete Main Default : Нет Forced : Нет Complexity index : 16 Number of dynamic objects : 15 Bed channel count : 1 канал Bed channel configuration : LFE Текст #1 Идентификатор : 4 Формат : UTF-8 Идентификатор кодека : S_TEXT/UTF8 Идентификатор кодека/Информация : UTF-8 Plain Text Продолжительность : 36 м. 39 с. Битрейт : 101 бит/сек Частота кадров : 0,241 кадр/сек Count of elements : 530 Размер потока : 27,3 Кбайт (0%) Заголовок : Rus (Full) Язык : Russian Default : Нет Forced : Нет Текст #2 Идентификатор : 5 Формат : UTF-8 Идентификатор кодека : S_TEXT/UTF8 Идентификатор кодека/Информация : UTF-8 Plain Text Продолжительность : 35 м. 23 с. Битрейт : 79 бит/сек Частота кадров : 0,259 кадр/сек Count of elements : 551 Размер потока : 20,6 Кбайт (0%) Язык : English Default : Нет Forced : Нет Текст #3 Идентификатор : 6 Формат : UTF-8 Идентификатор кодека : S_TEXT/UTF8 Идентификатор кодека/Информация : UTF-8 Plain Text Продолжительность : 36 м. 54 с. Битрейт : 85 бит/сек Частота кадров : 0,290 кадр/сек Count of elements : 642 Размер потока : 23,0 Кбайт (0%) Заголовок : SDH Язык : English Default : Нет Forced : Нет Меню 00:00:00.000 : en:Part 01 00:36:04.450 : en:Credits
[+] Скриншоты

Всего файлов в раздаче: 7 
Baby.Reindeer.S01E01.2160p.NF.WEB-DL.DV.HDR.H.265.RGzsRutracker.mkv4.45 GB
Baby.Reindeer.S01E02.2160p.NF.WEB-DL.DV.HDR.H.265.RGzsRutracker.mkv3.93 GB
Baby.Reindeer.S01E03.2160p.NF.WEB-DL.DV.HDR.H.265.RGzsRutracker.mkv5.43 GB
Baby.Reindeer.S01E04.2160p.NF.WEB-DL.DV.HDR.H.265.RGzsRutracker.mkv6.46 GB
Baby.Reindeer.S01E05.2160p.NF.WEB-DL.DV.HDR.H.265.RGzsRutracker.mkv3.96 GB
Baby.Reindeer.S01E06.2160p.NF.WEB-DL.DV.HDR.H.265.RGzsRutracker.mkv4.66 GB
Baby.Reindeer.S01E07.2160p.NF.WEB-DL.DV.HDR.H.265.RGzsRutracker.mkv4.47 GB

Похожие раздачи по запросу - Оленёнок
2024-05-17 magnet Оленёнок / Baby Reindeer [S01] (2024) WEBRip | ViruseProject 2.64 GB ↑ 0 ↓ 0
2024-05-15 magnet Олененок / Baby Reindeer [S01] (2024) WEB-DLRip-AVC от DoMiNo & селезень | HDrezka Studio, Red Head Sound 3.63 GB ↑ 0 ↓ 0
2024-05-12 magnet Олененок / Baby Reindeer [S01] (2024) WEB-DL 1080p | HDrezka Studio, Red Head Sound 13.78 GB ↑ 0 ↓ 4
2024-05-11 magnet Оленёнок / Baby Reindeer [S01] (2024) UHD WEB-DL-HEVC 2160p | 4K | HDR | Dolby Vision Profile 8 | P 33.68 GB ↑ 0 ↓ 1
2024-04-30 magnet Олененок / Baby Reindeer [S01] (2024) WEB-DL 1080p | HDrezka Studio 13.46 GB ↑ 2 ↓ 0

Комментарии


Зарегистрируйтесь чтобы добавить комментарий
Торрент клиент
byTorrent - программа для загрузки торрент-файлов.

Скачать byTorrent.exe (1,5 МБ)

Скачать byTorrent.zip (0,6 МБ)

Поддержи torrent.by
российских рублей
(300 российских рублей это 4$)

Обратная связь rss

End game ©