↑↓torrent.by
Поиск
Логин:  Регистрация
Пароль:

Индиана Джонс и колесо судьбы / Індіана Джонс і реліквія долі / Indiana Jones and the Dial of Destiny (2023) UHD BDRemux 2160p | 4K | HDR | Dolby Vision Profile 8 | D | UKR

download Скачать торрент-файл   magnet Магнитная ссылка Размер: 68.73 GB Раздают: 1 Качают: 1 Добавлен: 2024-05-01 05:00
Пиры будут получены из сети DHT
Последний сидер был замечен сегодня в 15:27
Информация о фильме Название: Индиана Джонс и колесо судьбы Оригинальное название: Indiana Jones and the Dial of Destiny Год выхода: 2023 Жанр: боевик, приключения Режиссер: Джеймс Мэнголд В ролях: Харрисон Форд, Фиби Уоллер-Бридж, Мадс Миккельсен, Антонио Бандерас, Джон Рис-Дэвис, Тоби Джонс, Бойд Холбрук, Карен Аллен, Шонетт Рене Уилсон, Томас Кречман О фильме: Неувядающий авантюрист и пытливый археолог-исследователь по-прежнему в седле. На этот раз ему придётся столкнуться с непростой задачей, которую решить на раз-два вряд ли получится. Но Индиана Джонс не даст слабину и не отступит при виде даже самой безнадёжной ситуации. Страна: США Студия: Lucasfilm Ltd., Paramount Pictures, Walt Disney Pictures Продолжительность: 02:38:28 Перевод: Профессиональный дублированный | LeDoyen (Украинский) Файл Кодек: H.265 Качество: BDRemux 2160p Видео: HEVC, HDR, Dolby Vision, 3840x2160 (16:9), 23.976 fps, 57,9 Mb/s, 10 bit Аудио 1: E-AC3, 48.0 kHz, 6 ch, 640 kb/s | UKR Аудио 2: TrueHD, 48.0 kHz, 8 ch, 4140 kb/s | ENG Аудио 3: AC3, 48.0 kHz, 6 ch, 640 kb/s | ENG Аудио 4: AC3, 48.0 kHz, 2 ch, 320 kb/s | ENG | Audio Deive Субтитры: украинские (forced, full), английские (forced, full, SDH) Трейлер
[+] MIGeneral Unique ID : 75931900851304984213622907144278530816 (0x391FF3C0A6C2386D3CE8B606BBFA5B00) Complete name : Indiana.Jones.and.the.Dial.of.Destiny.2023.BDRemux.2160p.HDR.mkv Format : Matroska Format version : Version 4 File size : 68.7 GiB Duration : 2 h 34 min Overall bit rate mode : Variable Overall bit rate : 63.7 Mb/s Movie name : Indiana Jones and the Dial of Destiny (2023) BDRemux 2160p Encoded date : UTC 2024-04-29 12:26:06 Writing application : mkvmerge v74.0.0 ('You Oughta Know') 64-bit Writing library : libebml v1.4.4 + libmatroska v1.7.1 Cover : Yes Attachments : Cover.jpg Video ID : 1 Format : HEVC Format/Info : High Efficiency Video Coding Format profile : Main 10@L5.1@High HDR format : Dolby Vision, Version 1.0, dvhe.08.06, BL+RPU, HDR10 compatible / SMPTE ST 2086, HDR10 compatible Codec ID : V_MPEGH/ISO/HEVC Duration : 2 h 34 min Bit rate : 57.9 Mb/s Width : 3 840 pixels Height : 2 160 pixels Display aspect ratio : 16:9 Frame rate mode : Constant Frame rate : 23.976 (24000/1001) FPS Color space : YUV Chroma subsampling : 4:2:0 (Type 2) Bit depth : 10 bits Bits/(Pixel*Frame) : 0.291 Stream size : 62.5 GiB (91%) Title : Indiana Jones and the Dial of Destiny (2023) Language : English Default : Yes Forced : No Color range : Limited Color primaries : BT.2020 Transfer characteristics : PQ Matrix coefficients : BT.2020 non-constant Mastering display color primar : BT.2020 Mastering display luminance : min: 0.0050 cd/m2, max: 1000 cd/m2 Audio #1 ID : 2 Format : E-AC-3 Format/Info : Enhanced AC-3 Commercial name : Dolby Digital Plus Codec ID : A_EAC3 Duration : 2 h 34 min Bit rate mode : Constant Bit rate : 640 kb/s Channel(s) : 6 channels Channel layout : L R C LFE Ls Rs Sampling rate : 48.0 kHz Frame rate : 31.250 FPS (1536 SPF) Compression mode : Lossy Stream size : 707 MiB (1%) Title : Ukrainian | E-AC3 | 5.1 | 640 kbps | DUB | LeDoyen Language : Ukrainian Service kind : Complete Main Default : Yes Forced : No Audio #2 ID : 3 Format : MLP FBA 16-ch Format/Info : Meridian Lossless Packing FBA with 16-channel presentation Commercial name : Dolby TrueHD with Dolby Atmos Codec ID : A_TRUEHD Duration : 2 h 34 min Bit rate mode : Variable Bit rate : 4 140 kb/s Maximum bit rate : 6 315 kb/s Channel(s) : 8 channels Channel layout : L R C LFE Ls Rs Lb Rb Sampling rate : 48.0 kHz Frame rate : 1 200.000 FPS (40 SPF) Compression mode : Lossless Stream size : 4.47 GiB (7%) Title : English | TrueHD Atmos | 7.1 | 4140 kbps Language : English Default : No Forced : No Number of dynamic objects : 13 Bed channel count : 1 channel Bed channel configuration : LFE Audio #3 ID : 4 Format : AC-3 Format/Info : Audio Coding 3 Commercial name : Dolby Digital Codec ID : A_AC3 Duration : 2 h 34 min Bit rate mode : Constant Bit rate : 640 kb/s Channel(s) : 6 channels Channel layout : L R C LFE Ls Rs Sampling rate : 48.0 kHz Frame rate : 31.250 FPS (1536 SPF) Compression mode : Lossy Stream size : 707 MiB (1%) Title : English | AC3 | 5.1 | 640 kbps Language : English Service kind : Complete Main Default : No Forced : No Audio #4 ID : 5 ID in the original source medi : 4353 (0x1101) Format : AC-3 Format/Info : Audio Coding 3 Commercial name : Dolby Digital Codec ID : A_AC3 Duration : 2 h 34 min Bit rate mode : Constant Bit rate : 320 kb/s Channel(s) : 2 channels Channel layout : L R Sampling rate : 48.0 kHz Frame rate : 31.250 FPS (1536 SPF) Compression mode : Lossy Stream size : 354 MiB (0%) Title : English | AC3 | 2.0 | 320 kbps | Audio Deive Language : English Service kind : Complete Main Default : No Forced : No Original source medium : Blu-ray Text #1 ID : 6 Format : UTF-8 Codec ID : S_TEXT/UTF8 Codec ID/Info : UTF-8 Plain Text Duration : 2 h 16 min Bit rate : 5 b/s Frame rate : 0.019 FPS Count of elements : 153 Stream size : 5.05 KiB (0%) Title : Ukrainian | Forced Language : Ukrainian Default : Yes Forced : No Text #2 ID : 7 Format : UTF-8 Codec ID : S_TEXT/UTF8 Codec ID/Info : UTF-8 Plain Text Duration : 2 h 33 min Bit rate : 58 b/s Frame rate : 0.190 FPS Count of elements : 1751 Stream size : 65.5 KiB (0%) Title : Ukrainian | Full | iTunes Language : Ukrainian Default : No Forced : No Text #3 ID : 8 Format : UTF-8 Codec ID : S_TEXT/UTF8 Codec ID/Info : UTF-8 Plain Text Duration : 2 h 16 min Bit rate : 2 b/s Frame rate : 0.017 FPS Count of elements : 141 Stream size : 2.77 KiB (0%) Title : English | Forced Language : English Default : No Forced : No Text #4 ID : 9 Format : UTF-8 Codec ID : S_TEXT/UTF8 Codec ID/Info : UTF-8 Plain Text Duration : 2 h 22 min Bit rate : 40 b/s Frame rate : 0.204 FPS Count of elements : 1739 Stream size : 42.7 KiB (0%) Title : English | Full Language : English Default : No Forced : No Text #5 ID : 10 Format : UTF-8 Codec ID : S_TEXT/UTF8 Codec ID/Info : UTF-8 Plain Text Duration : 2 h 23 min Bit rate : 56 b/s Frame rate : 0.282 FPS Count of elements : 2429 Stream size : 59.4 KiB (0%) Title : English | Full SDH Language : English Default : No Forced : No
[+] Скриншоты

Всего файлов в раздаче: 1 
Indiana.Jones.and.the.Dial.of.Destiny.2023.BDRemux.2160p.HDR.mkv68.73 GB

Похожие раздачи по запросу - Индиана
2023-12-01 magnet Индиана Джонс и колесо судьбы / Indiana Jones and the Dial of Destiny (2023) HDRip-AVC от New-Team | D | RHS 2.99 GB ↑ 0 ↓ 0
2023-11-21 magnet Индиана Джонс и колесо судьбы / Indiana Jones and the Dial of Destiny (2023) BDRip от MegaPeer | D 1.46 GB ↑ 0 ↓ 0
2023-11-01 magnet Индиана Джонс и колесо судьбы / Indiana Jones and the Dial of Destiny (2023) WEB-DL 1080p от RGB | D 9.47 GB ↑ 0 ↓ 0
2023-08-29 magnet Индиана Джонс и колесо судьбы / Indiana Jones and the Dial of Destiny (2023) UHD WEB-DL-HEVC 2160p от селезень | 4K | HDR | HDR10+ | Dolby Vision Profile 8 | D 27.50 GB ↑ 1 ↓ 0
2023-08-29 magnet Индиана Джонс и колесо судьбы / Indiana Jones and the Dial of Destiny (2023) WEB-DLRip-AVC от DoMiNo & селезень | D | MovieDalen 2.76 GB ↑ 1 ↓ 0
2023-08-29 magnet Индиана Джонс и колесо судьбы / Indiana Jones and the Dial of Destiny (2023) WEB-DL 720p от селезень | D 5.05 GB ↑ 0 ↓ 0
2023-08-29 magnet Индиана Джонс и колесо судьбы / Indiana Jones and the Dial of Destiny (2023) WEB-DLRip от MegaPeer | D 1.47 GB ↑ 0 ↓ 0

Комментарии


Зарегистрируйтесь чтобы добавить комментарий
Торрент клиент
byTorrent - программа для загрузки торрент-файлов.

Скачать byTorrent.exe (1,5 МБ)

Скачать byTorrent.zip (0,6 МБ)

Поддержи torrent.by
российских рублей
(300 российских рублей это 4$)

Обратная связь rss

End game ©