↑↓torrent.by
Поиск
Логин:  Регистрация
Пароль:

Артур, ты король / Arthur the King (2024) WEB-DLRip от New-Team | D | Локализованная версия

download Скачать торрент-файл   magnet Магнитная ссылка Размер: 1.47 GB Добавлен: 2024-05-01 05:00
Пиры будут получены из сети DHT
Последний сидер был замечен 2024-05-19 20:28
Артур, ты король / Arthur the King Год выпуска: 2024 Выпущено: США / Lionsgate, Tooley Productions Жанр: драма, приключения Режиссер: Саймон Селлан Джонс / Simon Cellan Jones В ролях: Марк Уолберг, Симу Лю, Джульет Райлэнс, Натали Эммануэль, Али Сулиман, Беар Гриллс, Пол Гилфойл, Роб Коллинз, Карлтон Бёрд, Сиси Валентина О фильме: Это было последнее соревнование капитана по приключенческим гонкам Майкла Линднорда, он был полон решимости ничему не позволить встать у него на пути. Собрав первоклассную команду, он не мог и представить, что в 700-километровом забеге у них появится неожиданный попутчик - пес по кличке Артур, встреча с которым изменит не только исход гонки, но и их жизнь. Продолжительность: 01:46:44 Перевод: Профессиональный (полное дублирование) | Мосфильм-Мастер Субтитры: Русские (форсированные (хардсаб)) Раздача от: Автор релиза: JNS82. Формат: AVI Качество: WEB-DLRip | Локализованная версия Видео: 720x304 (2.35:1), 24.000 fps, XviD MPEG-4 ~ 1508 kbps avg, 0.287 bit/pixel, build 73 Аудио: 48 kHz, AC3 Dolby Digital, 3/2 (L,C,R,l,r) + LFE ch, ~ 448 kbps | RUS |
[+] MediaInfoОбщее Полное имя : D:TorrentsArthur.the.King.2024.WEB-DLRip_от New-Team_by_JNS82.avi Формат : AVI Формат/Информация : Audio Video Interleave Настройки формата : BitmapInfoHeader / WaveFormatEx Размер файла : 1,47 Гбайт Продолжительность : 1 ч. 46 мин. Общий битрейт : 1 966 Кбит/сек Частота кадров : 24,000 кадра/сек Программа кодирования : VirtualDubMod 1.5.10.2 (build 2540/release) Библиотека кодирования : VirtualDubMod build 2540/release Видео Идентификатор : 0 Формат : MPEG-4 Visual Профиль формата : Advanced Simple@L5 Настройки формата : BVOP1 / Custom Matrix Параметр BVOP формата : 1 Параметр QPel формата : Нет Параметр GMC формата : Без точки перехода Параметр Matrix формата : Выборочная Идентификатор кодека : XVID Идентификатор кодека/Подсказка : XviD Продолжительность : 1 ч. 46 мин. Битрейт : 1 508 Кбит/сек Ширина : 720 пикселей Высота : 304 пикселя Соотношение сторон дисплея : 2,35:1 Частота кадров : 24,000 кадра/сек Цветовое пространство : YUV Цветовая субдискретизация : 4:2:0 Битовая глубина : 8 бит Тип развёртки : Прогрессивная Метод сжатия : С потерями Бит/(Пиксели*Кадры) : 0.287 Размер потока : 1,12 Гбайт (77%) Библиотека кодирования : XviD 73 Аудио Идентификатор : 1 Формат : AC-3 Формат/Информация : Audio Coding 3 Коммерческое название : Dolby Digital Идентификатор кодека : 2000 Продолжительность : 1 ч. 46 мин. Вид битрейта : Постоянный Битрейт : 448 Кбит/сек Канал(-ы) : 6 каналов Расположение каналов : L R C LFE Ls Rs Частота дискретизации : 48,0 КГц Частота кадров : 31,250 кадров/сек (1536 SPF) Метод сжатия : С потерями Размер потока : 342 Мбайт (23%) Выравнивание : Разделение по промежуткам Чередование, продолжительность : 42 мс. (1,00 видеокадр) Чередование, продолжительность пред.загр : 500 мс. Вид сервиса : Complete Main Нормализация звука речи : -31 dB cmixlev : -4.5 dB surmixlev : -6 dB dialnorm_Average : -31 dB dialnorm_Minimum : -31 dB dialnorm_Maximum : -31 dB

Всего файлов в раздаче: 1 
Arthur.the.King.2024.WEB-DLRip_от New-Team_by_JNS82.avi1.47 GB

Похожие раздачи по запросу - Артур
Вчера magnet Артур, ты король / Arthur the King (2024) BDRip 1080p от селезень | D | Мосфильм-Мастер 8.43 GB ↑ 0 ↓ 0
Вчера magnet Артур, ты король / Arthur the King (2024) BDRip 720p от DoMiNo & селезень | D | Мосфильм-Мастер 3.62 GB ↑ 0 ↓ 0
Вчера magnet Артур, ты король / Arthur the King (2024) BDRip 1080p от MegaPeer | D 7.33 GB ↑ 0 ↓ 0
Вчера magnet Артур, ты король / Arthur the King (2024) BDRip 720p от MegaPeer | D 3.40 GB ↑ 0 ↓ 0
Вчера magnet Артур, ты король / Arthur the King (2024) BDRip от MegaPeer | D 1.46 GB ↑ 1 ↓ 1
Вчера magnet Артур, ты король / Arthur the King (2024) BDRip-AVC от New-Team | D, L 2.18 GB ↑ 1 ↓ 0
2024-05-06 magnet Артур, ты король / Arthur the King (2024) WEB-DLRip-AVC от ExKinoRay | D | Мосфильм-Мастер 1.45 GB ↑ 0 ↓ 1

Комментарии


Зарегистрируйтесь чтобы добавить комментарий
Торрент клиент
byTorrent - программа для загрузки торрент-файлов.

Скачать byTorrent.exe (1,5 МБ)

Скачать byTorrent.zip (0,6 МБ)

Поддержи torrent.by
российских рублей
(300 российских рублей это 4$)

Обратная связь rss

End game ©