↑↓torrent.by
Поиск
Логин:  Регистрация
Пароль:

Артур, ты король / Arthur the King (2024) WEB-DL 1080p от селезень | D | Мосфильм-Мастер | Локализованная версия

download Скачать торрент-файл   magnet Магнитная ссылка Размер: 5.02 GB Раздают: 0 Качают: 2 Добавлен: 2024-05-01 05:00
Пиры будут получены из сети DHT
Последний сидер был замечен вчера в 21:37
Информация о фильме Название: Артур, ты король Оригинальное название: Arthur the King Год выпуска: 2024 Жанр: драма, приключения Режиссер: Саймон Селлан Джонс / Simon Cellan Jones В ролях: Марк Уолберг, Симу Лю, Джульет Райлэнс, Натали Эммануэль, Али Сулиман, Беар Гриллс, Пол Гилфойл, Роб Коллинз, Карлтон Бёрд, Сиси Валентина О фильме: Это было последнее соревнование капитана по приключенческим гонкам Майкла Линднорда, он был полон решимости ничему не позволить встать у него на пути. Собрав первоклассную команду, он не мог и представить, что в 700-километровом забеге у них появится неожиданный попутчик - пес по кличке Артур, встреча с которым изменит не только исход гонки, но и их жизнь. Выпущено: США / Lionsgate, Tooley Productions Продолжительность: 01:46:54 Перевод: Дублированный | Мосфильм-Мастер Субтитры: Русские (Forced - хардсаб) Файл Качество: WEB-DL 1080p | Локализованная версия Формат: MKV Видео: 1920x800, 24.000 fps, MPEG-4 AVC, ~6000 Kbps Аудио 1: AC3, 6 ch, ~448 kbps - | Русский | Аудио 2: E-AC3, 6 ch, ~448 kbps - | Русский | Формат субтитров: хардсаб
[+] M/IGeneral Unique ID : 162937837871100561256446561719632194193 (0x7A94AFA471AADF7CEEEA1E725996EA91) Complete name : H:VideoHArthur.the.King.2024.WEB-DL.1080p.seleZen.mkv Format : Matroska Format version : Version 4 File size : 5.02 GiB Duration : 1 h 46 min Overall bit rate : 6 724 kb/s Frame rate : 24.000 FPS Movie name : Arthur the King 2024 from seleZen Encoded date : 2024-04-30 09:33:24 UTC Writing application : mkvmerge v80.0 ('Roundabout') 64-bit Writing library : libebml v1.4.4 + libmatroska v1.7.1 Video ID : 1 Format : AVC Format/Info : Advanced Video Codec Format profile : Progressive High@L4 Format settings : CABAC / 5 Ref Frames Format settings, CABAC : Yes Format settings, Reference : 5 frames Codec ID : V_MPEG4/ISO/AVC Duration : 1 h 46 min Bit rate : 6 000 kb/s Width : 1 920 pixels Height : 800 pixels Display aspect ratio : 2.40:1 Frame rate mode : Constant Frame rate : 24.000 FPS Color space : YUV Chroma subsampling : 4:2:0 Bit depth : 8 bits Scan type : Progressive Bits/(Pixel*Frame) : 0.163 Stream size : 4.35 GiB (87%) Writing library : x264 core 157 Encoding settings : cabac=1 / ref=5 / deblock=1:0:0 / analyse=0x3:0x133 / me=umh / subme=10 / psy=1 / psy_rd=1.00:0.00 / mixed_ref=1 / me_range=24 / chroma_me=1 / trellis=2 / 8x8dct=1 / cqm=0 / deadzone=21,11 / fast_pskip=1 / chroma_qp_offset=-2 / threads=25 / lookahead_threads=4 / sliced_threads=0 / nr=0 / decimate=1 / interlaced=0 / bluray_compat=0 / stitchable=1 / constrained_intra=0 / bframes=8 / b_pyramid=2 / b_adapt=2 / b_bias=0 / direct=3 / weightb=1 / open_gop=0 / weightp=2 / keyint=250 / keyint_min=24 / scenecut=40 / intra_refresh=0 / rc_lookahead=60 / rc=2pass / mbtree=1 / bitrate=6000 / ratetol=1.0 / qcomp=0.60 / qpmin=0 / qpmax=69 / qpstep=4 / cplxblur=20.0 / qblur=0.5 / vbv_maxrate=6600 / vbv_bufsize=12000 / nal_hrd=none / filler=0 / ip_ratio=1.40 / aq=1:1.00 Language : English Default : Yes Forced : No Color range : Limited Color primaries : BT.709 Transfer characteristics : BT.709 Matrix coefficients : BT.709 Audio #1 ID : 2 Format : AC-3 Format/Info : Audio Coding 3 Commercial name : Dolby Digital Codec ID : A_AC3 Duration : 1 h 46 min Bit rate mode : Constant Bit rate : 448 kb/s Channel(s) : 6 channels Channel layout : L R C LFE Ls Rs Sampling rate : 48.0 kHz Frame rate : 31.250 FPS (1536 SPF) Compression mode : Lossy Stream size : 343 MiB (7%) Title : "Русский 5.1 (МОСФИЛЬМ-МАСТЕР)" Language : Russian Service kind : Complete Main Default : Yes Forced : No Audio #2 ID : 3 Format : E-AC-3 Format/Info : Enhanced AC-3 Commercial name : Dolby Digital Plus Codec ID : A_EAC3 Duration : 1 h 46 min Bit rate mode : Constant Bit rate : 448 kb/s Channel(s) : 6 channels Channel layout : L R C LFE Ls Rs Sampling rate : 48.0 kHz Frame rate : 31.250 FPS (1536 SPF) Bit depth : 32 bits Compression mode : Lossy Stream size : 343 MiB (7%) Title : "Русский 5.1 (МОСФИЛЬМ-МАСТЕР)" Language : Russian Service kind : Complete Main Default : No Forced : No
Релиз: Присоединяйся к: Кликай на баннеры.

Всего файлов в раздаче: 1 
Arthur.the.King.2024.WEB-DL.1080p.seleZen.mkv5.02 GB

Похожие раздачи по запросу - Артур
Вчера magnet Артур, ты король / Arthur the King (2024) BDRip 1080p от селезень | D | Мосфильм-Мастер 8.43 GB ↑ 0 ↓ 0
Вчера magnet Артур, ты король / Arthur the King (2024) BDRip 720p от DoMiNo & селезень | D | Мосфильм-Мастер 3.62 GB ↑ 0 ↓ 5
Вчера magnet Артур, ты король / Arthur the King (2024) BDRip 1080p от MegaPeer | D 7.33 GB ↑ 0 ↓ 0
Вчера magnet Артур, ты король / Arthur the King (2024) BDRip 720p от MegaPeer | D 3.40 GB ↑ 0 ↓ 2
Вчера magnet Артур, ты король / Arthur the King (2024) BDRip от MegaPeer | D 1.46 GB ↑ 1 ↓ 2
Вчера magnet Артур, ты король / Arthur the King (2024) BDRip-AVC от New-Team | D, L 2.18 GB ↑ 0 ↓ 0
2024-05-06 magnet Артур, ты король / Arthur the King (2024) WEB-DLRip-AVC от ExKinoRay | D | Мосфильм-Мастер 1.45 GB ↑ 0 ↓ 1

Кто качает (только для создателя раздачи и модераторов):
ПользовательIP:портОтдалПринялОстатокСидируетТоррент клиентОбновился
1 Аноним 219.102.58.212:34061 0.00 B 1.46 GB 4.94 GB нет -qB4390- 16:02 2024-05-22
2 Аноним 16.120.144.5:32000 0.00 B 0.00 B 8589934592.00 GB нет -qB4390- 16:10 2024-05-22

Комментарии


Зарегистрируйтесь чтобы добавить комментарий
Торрент клиент
byTorrent - программа для загрузки торрент-файлов.

Скачать byTorrent.exe (1,5 МБ)

Скачать byTorrent.zip (0,6 МБ)

Поддержи torrent.by
российских рублей
(300 российских рублей это 4$)

Обратная связь rss

End game ©