↑↓torrent.by
Поиск
Логин:  Регистрация
Пароль:

Индонезия - тайны леса / Indonesia - the Forests of the Strange (2020) HDTV 1080i | P1

download Скачать торрент-файл   magnet Магнитная ссылка Размер: 2.48 GB Добавлен: 2024-05-01 11:00
Пиры будут получены из сети DHT
Последний сидер был замечен 2024-05-13 17:04
Информация о фильме Название: Индонезия - тайны леса Оригинальное название: Indonesia - the Forests of the Strange Год выхода: 2020 Жанр: Документальный, природа, флора, фауна Режиссер: Бернард Гуеррини О фильме: Суматра - седьмой по величине остров в мире. И Сулавеси, впечатляющий многообразием ландшафтов. На этих индонезийских островах главные герои - деревья, в кронах которых обитает множество необычных животных. Страна: Франция Студия: The Explorers Продолжительность: 00:44:42 Перевод: Профессиональный (одноголосый закадровый) Файл Кодек: AVC/H.264 Качество: HDTV 1080i Видео: 1920x1080 (16:9), 25 fps, AVC (H.264), High@L4, 7339 kbps, 0.142 bit/pixel Звук: Русский 48 kHz, MPEG Layer 2, 2 ch, 192 kbps Семпл
[+] MediaInfoComplete name : F:НаладкиIndonesia_the Forests of the Strange.ts Format : MPEG-TS File size : 2.48 GiB Duration : 44 min 43 s Overall bit rate mode : Variable Overall bit rate : 7 924 kb/s Frame rate : 25.000 FPS Video ID : 513 (0x201) Menu ID : 1 (0x1) Format : AVC Format/Info : Advanced Video Codec Format profile : High@L4 Format settings : CABAC / 4 Ref Frames Format settings, CABAC : Yes Format settings, Reference : 4 frames Codec ID : 27 Duration : 44 min 42 s Bit rate : 7 339 kb/s Width : 1 920 pixels Height : 1 080 pixels Display aspect ratio : 16:9 Active Format Deion : Letterbox 16:9 image Frame rate : 25.000 FPS Standard : Component Color space : YUV Chroma subsampling : 4:2:0 Bit depth : 8 bits Scan type : Interlaced Scan type, store method : Separated fields Scan order : Top Field First Bits/(Pixel*Frame) : 0.142 Stream size : 2.29 GiB (93%) Color range : Limited Color primaries : BT.709 Transfer characteristics : BT.709 Matrix coefficients : BT.709 Audio ID : 514 (0x202) Menu ID : 1 (0x1) Format : MPEG Audio Format version : Version 1 Format profile : Layer 2 Codec ID : 3 Duration : 44 min 42 s Bit rate mode : Constant Bit rate : 192 kb/s Channel(s) : 2 channels Sampling rate : 48.0 kHz Frame rate : 41.667 FPS (1152 SPF) Compression mode : Lossy Stream size : 61.4 MiB (2%) Language : Russian
[+] Скриншоты
Релиз от: kyba

Всего файлов в раздаче: 1 
Indonesia_the Forests of the Strange.ts2.48 GB

Комментарии


Зарегистрируйтесь чтобы добавить комментарий
Торрент клиент
byTorrent - программа для загрузки торрент-файлов.

Скачать byTorrent.exe (1,5 МБ)

Скачать byTorrent.zip (0,6 МБ)

Поддержи torrent.by
российских рублей
(300 российских рублей это 4$)

Обратная связь rss

End game ©