↑↓torrent.by
Поиск
Логин:  Регистрация
Пароль:

Склеп / Чердак / Loft / Rofuto (2005) HDTVRip от liosaa | L1

download Скачать торрент-файл   magnet Магнитная ссылка Размер: 1.48 GB Добавлен: 2024-05-01 11:00
Пиры будут получены из сети DHT
Последний сидер был замечен 2024-05-01 11:00
Информация о фильме Название: Склеп / Чердак Оригинальное название: Loft / Rofuto Год выхода: 2005 Жанр: мистика, притча, драма, ужасы Режиссер: Киёси Куросава / Kiyoshi Kurosawa В ролях: Мики Накатани, Эцуси Тоёкава, Хидэтоси Нисидзима, Юми Адати, Сава Судзуки, Харухито Като, Рэн Осуги, Норико Эгути О фильме: Рэйко Харуна, модная писательница с эффектной внешностью, одолеваема странным недугом. Ей мерещатся приступы рвоты – будто бы из неё водопадом выходит чёрный ил и болотная слизь. Её ушлый издатель Кидзима, заинтересованный в новом бестселлере, отправляет Рэйко на природу – якобы в целях оздоровления, – арендовав ей среди болот старенький домик. Там же по соседству стоит мрачного вида лофт, больше похожий на гигантский склеп: по слухам, это загородный университетский корпус, который отчего-то давным-давно пустует. Ночью Рэйко с ужасом видит, как какой-то странный тип привозит завёрнутое в целлофан тело и прячет его в мрачном корпусе универа. Позже выяснится, что это профессор антропологии Ёсиока Макото, – он попросит писательницу взять страшный свёрток к себе «на передержку», всего на пару деньков, чтобы не пугать нагрянувших на стажировку студентов. Профессор расскажет ей, что в целлофане – загадочная мумия из самого сердца болот, к тайне которой он пытается прикоснуться вслед за сгинувшей в этих краях группой антропологов... Пожалуй, это самый запутанный, сложный и «навороченный» ужастик Киёси, прячущий под вывеской хоррора три философских мотива: 1) проблему абьюзивных отношений в социуме между мужчиной и женщиной; 2) проблему вечных попыток прекрасного пола обмануть смерть и продлить себе молодость; 3) проблему ежечасного выбора художником между свободой творчества и подённым ремеслом профессионала. Возможно, слить все сюжетные линии воедино и несколько смягчить восприятие картины призван сквозной мотив ленты – «прикосновение к неведомому». Он явлен здесь почти что буквально, по-детски просто, пронзительно и наивно – наездом камеры изнутри страшной комнаты вплотную к мутному оконному стеклу, которого коснулась снаружи чья-то робкая рука (см. постер)... Используя схемы мистического ужастика, Куросава вновь и вновь расширяет свою кино-вселенную, интуитивно и как бы невзначай нарушая логические связи, переплетая мотивации персонажей и разветвляя сюжет. По велению своей жуткой музы режиссёр наполняет кадр давящим ощущением тайны, осознанием затерянного в глубинах нашей психики порока, который дамокловым мечом завис над родом людским. Будто все мы – действующие лица его гнетущей, потусторонней трагедии. (synopsis*liosaa). Страна: Япония, Южная Корея Продолжительность: 01:54:33 Перевод: Одноголосый закадровый liosaa*2024 Файл Кодек: XviD Качество: HDTVRip Видео: 720x400 (16:9), 23.976 fps, ~1644 kbps avg Звук: 48 kHz, AC3 DD, 2/0 (L,R) ch, ~224.00 kbps avg (рус) Субтитры: нет
[+] MIФормат : AVI Формат/Информация : Audio Video Interleave Размер файла : 1,48 Гбайт Продолжительность : 1 ч. 54 м. Общий поток : 1845 Кбит/сек Программа кодирования : VirtualDubMod 1.5.10.2 (build 2540/release) Библиотека кодирования : VirtualDubMod build 2540/release Видео Идентификатор : 0 Формат : MPEG-4 Visual Профиль формата : Advanced Simple@L5 Настройки формата : BVOP2 Параметр BVOP формата : 2 Параметр QPel формата : Нет Параметр GMC формата : Без точки перехода Параметр матрицы формата : Default (MPEG) Идентификатор кодека : XVID Идентификатор кодека/Подсказка : XviD Продолжительность : 1 ч. 54 м. Битрейт : 1644 Кбит/сек Ширина : 720 пикселей Высота : 400 пикселей Соотношение сторон : 16:9 Частота кадров : 23,976 (24000/1001) кадра/сек Цветовое пространство : YUV Субдискретизация насыщенности : 4:2:0 Битовая глубина : 8 бит Тип развёртки : Прогрессивная Метод сжатия : С потерями Бит/(Пиксели*Кадры) : 0.238 Размер потока : 1,32 Гбайт (89%) Библиотека кодирования : XviD 74 Аудио Идентификатор : 1 Формат : AC-3 Формат/Информация : Audio Coding 3 Коммерческое название : Dolby Digital Идентификатор кодека : 2000 Продолжительность : 1 ч. 54 м. Вид битрейта : Постоянный Битрейт : 192 Кбит/сек Каналы : 2 канала ChannelLayout : L R Частота : 48,0 КГц Частота кадров : 31,250 кадров/сек (1536 SPF) Битовая глубина : 16 бит Метод сжатия : С потерями Размер потока : 157 Мбайт (10%) Выравнивание : Разделение по промежуткам Продолжительность промежутка : 42 мс. (1,00 видеокадр) Время предзагрузки промежутка : 500 мс. ServiceKind/Strin : Complete Main
[+] Скриншоты
Релиз от: liosaa

Всего файлов в раздаче: 1 
Loft.2005.HDTVRip.XviD.RUS.liosaa.avi1.48 GB

Кто качает (только для создателя раздачи и модераторов): Локальные пиры отсутствуют

Комментарии


Зарегистрируйтесь чтобы добавить комментарий
Торрент клиент
byTorrent - программа для загрузки торрент-файлов.

Скачать byTorrent.exe (1,5 МБ)

Скачать byTorrent.zip (0,6 МБ)

Поддержи torrent.by
российских рублей
(300 российских рублей это 4$)

Обратная связь rss

End game ©