↑↓torrent.by
Поиск
Логин:  Регистрация
Пароль:

Я знаю, кто тебя убил [01-04 из 08] (2024) WEBRip 1080p

download Скачать торрент-файл   magnet Магнитная ссылка Размер: 5.26 GB Добавлен: 2024-05-01 11:00
Пиры будут получены из сети DHT
Последний сидер был замечен сегодня в 15:02
Информация о фильме Название: Я знаю, кто тебя убил Год выхода: 2024 Жанр: Детектив, триллер Режиссёр: Софья Райзман В ролях: Александр Яценко, Юлия Снигирь, Евгения Симонова, Михаил Тройник, Ольга Озоллапиня, Александр Ильин мл., Мария Смольникова, Елизавета Запорожец, Мария Карпова, Агния Кузнецова, Георгий Уточкин, Игорь Хрипунов, Светлана Иванова-Сергеева, Гоша Токаев, Данил Иванов, Юлия Овчаренко, Юлия Чебакова, Дмитрий Иванюгин, Алиса Шевердина, Анна Мустина, Ульяна Кравец, Екатерина Тарасова О фильме: Трехлетняя девочка похищена в московском цирке. Похитителю не нужен выкуп, им движет жажда мести. Он заставит родителей страдать так, как страдает сам, лишившись единственного близкого человека. Они так и не узнают, кто их наказал. Чтобы понять, за что он мстит, нужно отправиться в прошлое. Страна: Россия Студия: Киностудия КИТ, НМГ Студия Продолжительность: 4 х ~ 00:48:00 Язык: Русский Премьера в Росcии: 01 мая 2024 года Цифровой релиз: 01 мая 2024 года Примечание: Без рекламы Возраст: 18+ Файл Формат: MKV Качество: WEBRip 1080p Видео: MPEG-4 AVC, ~ 4000 Кбит/с, 1920x1080 Звук: AAC, 2 ch, 128 Кбит/с Субтитры: Отсутствуют Семпл
[+] Скриншоты
[+] MIОбщее Уникальный идентификатор : 83011324708691769395609997947096073011 (0x3E73664C0D7DF07DCEAA726DDF4D0333) Полное имя : C:UsersAdminDesktopЯ.знаю.кто.тебя.убил.S01.1080p.WEB-DL.x264Я.знаю.кто.тебя.убил.S01E01.1080p.WEB-DL.x264.mkv Формат : Matroska Версия формата : Version 4 Размер файла : 1,23 Гбайт Продолжительность : 43 м. 47 с. Общий поток : 4 022 Кбит/сек Дата кодирования : UTC 2024-04-30 22:29:40 Программа кодирования : mkvmerge v82.0 ('I'm The President') 64-bit Библиотека кодирования : libebml v1.4.5 + libmatroska v1.7.1 Видео Идентификатор : 1 Формат : AVC Формат/Информация : Advanced Video Codec Профиль формата : High@L4 Настройки формата : CABAC / 3 Ref Frames Параметр CABAC формата : Да Параметр RefFrames формата : 3 кадра Идентификатор кодека : V_MPEG4/ISO/AVC Продолжительность : 43 м. 47 с. Вид битрейта : Постоянный Битрейт : 4 000 Кбит/сек Ширина : 1 920 пикселей Высота : 1 080 пикселей Соотношение сторон : 16:9 Режим частоты кадров : Постоянный Частота кадров : 25,000 кадров/сек Цветовое пространство : YUV Субдискретизация насыщенности : 4:2:0 Битовая глубина : 8 бит Тип развёртки : Прогрессивная Бит/(Пиксели*Кадры) : 0.077 Размер потока : 1,19 Гбайт (97%) Язык : English Default : Да Forced : Нет Аудио Идентификатор : 2 Формат : AAC LC Формат/Информация : Advanced Audio Codec Low Complexity Идентификатор кодека : A_AAC-2 Продолжительность : 43 м. 47 с. Битрейт : 125 Кбит/сек Каналы : 2 канала Channel layout : L R Частота : 48,0 КГц Частота кадров : 46,875 кадров/сек (1024 SPF) Метод сжатия : С потерями Размер потока : 39,3 Мбайт (3%) Язык : Russian Default : Да Forced : Нет

Всего файлов в раздаче: 4 
[NOOBDL]Я.знаю.кто.тебя.убил.S01E01.1080p.WEB-DL.x264.mkv1.23 GB
[NOOBDL]Я.знаю.кто.тебя.убил.S01E02.1080p.WEB-DL.x264.mkv1.34 GB
[NOOBDL]Я.знаю.кто.тебя.убил.S01E03.1080p.WEB-DL.x264.mkv1.35 GB
[NOOBDL]Я.знаю.кто.тебя.убил.S01E04.1080p.WEB-DL.x264.mkv1.34 GB

Похожие раздачи по запросу - знаю
2024-05-12 magnet Я знаю, кто тебя убил / Дело Германа [S01] (2024) WEBRip-AVC от Generalfilm | КПК 1.66 GB ↑ 0 ↓ 0
2024-05-09 magnet Я знаю, кто тебя убил / Дело Германа [S01] (2024) WEBRip от Files-x 4.64 GB ↑ 0 ↓ 0
2024-05-08 magnet Я знаю, кто тебя убил / Дело Германа [S01] (2024) WEBRip-AVC от Files-x 4.70 GB ↑ 0 ↓ 0
2024-05-08 magnet Я знаю, кто тебя убил / Дело Германа [S01] (2024) WEBRip 720p от ExKinoRay 7.06 GB ↑ 0 ↓ 0
2024-05-08 magnet Я знаю, кто тебя убил [S01] (2024) WEBRip 1080p 10.55 GB ↑ 0 ↓ 0
2024-05-07 magnet Я знаю, кто тебя убил / Дело Германа [01х01-04 из 08] (2024) WEBRip-AVC от Generalfilm | КПК 847.45 MB ↑ 0 ↓ 0
2024-05-02 magnet Я знаю, кто тебя убил / Дело Германа [01х01-04 из 08] (2024) WEBRip 720p от ExKinoRay 3.52 GB ↑ 0 ↓ 0

Комментарии


Зарегистрируйтесь чтобы добавить комментарий
Торрент клиент
byTorrent - программа для загрузки торрент-файлов.

Скачать byTorrent.exe (1,5 МБ)

Скачать byTorrent.zip (0,6 МБ)

Поддержи torrent.by
российских рублей
(300 российских рублей это 4$)

Обратная связь rss

End game ©