↑↓torrent.by
Поиск
Логин:  Регистрация
Пароль:

Неожиданные связи / Cocorico (2024) WEB-DLRip 720p от DoMiNo & селезень | D | Марафон

download Скачать торрент-файл   magnet Магнитная ссылка Размер: 1.79 GB Добавлен: 2024-05-01 17:00
Пиры будут получены из сети DHT
Последний сидер был замечен 2024-05-06 20:43
Информация о фильме Название: Неожиданные связи Оригинальное название: Cocorico Год выхода: 2024 Жанр: комедия Режиссер: Жюльен Эрве В ролях: Кристиан Клавье, Дидье Бурдон, Сильви Тестю, Марианн Деникур, Жюльен Пестель, Хлоя Куллу, Софи Фруассар, Йохан Дионне, Патрик Прежан, Лоик Рожан О фильме: Фредерик Бувье Соваж очень гордится своей многовековой родословной, полной почтенных французских герцогов и сановников. А потому очень недоволен, что его единственная дочь Алиса встречается с Франсуа, парнем из бедной семьи, сыном продавца автомобилей. Несмотря на это, влюбленные заявляют о своем намерении пожениться и на общей встрече делают родителям необычный подарок. Накануне свадьбы будущие супруги решили проверить свое происхождение и сделали тест ДНК. Обе семьи ждет нечто большее, чем просто сюрприз. Выпущено: Франция / SND Films, White and Yellow Films, M6 Films Продолжительность: 01:31:34 Перевод: Дублированный | Марафон Файл Формат: Matroska Качество: WEB-DLRip 720p Видео: 1280x536 at 24.000 fps, x264@L4.1, ~2282 kbps Аудио 1: AC3, 2 ch, ~256 kbps - | Русский | Аудио 2: E-AC3, 2 ch, ~256 kbps - | Русский | Субтитры: Нет ***Рип от: -=DoMiNo=-
[+] M/Ix264 : frame I:1521 Avg QP:17.15 size: 76606 x264 : frame P:24226 Avg QP:18.24 size: 26880 x264 : frame B:106098 Avg QP:20.42 size: 7537 General Unique ID : 307496541764711892555900746616898632400 (0xE755AE049F180A729A6A768DF72CBAD0) Complete name : R:Cocorico.2024.DUB.WEB-DLRip.720p.x264.seleZen.mkv Format : Matroska Format version : Version 4 File size : 1.79 GiB Duration : 1 h 31 min Overall bit rate : 2 797 kb/s Frame rate : 24.000 FPS Movie name : Cocorico.2024.DUB.WEB-DLRip.720p.x264.seleZen Encoded date : 2024-05-01 11:49:31 UTC Writing application : mkvmerge v84.0 ('Sleeper') 64-bit Writing library : libebml v1.4.5 + libmatroska v1.7.1 Cover : Yes Attachments : cover.jpg / small_cover.jpg Video ID : 1 Format : AVC Format/Info : Advanced Video Codec Format profile : High@L4.1 Format settings : CABAC / 5 Ref Frames Format settings, CABAC : Yes Format settings, Reference : 5 frames Codec ID : V_MPEG4/ISO/AVC Duration : 1 h 31 min Bit rate : 2 282 kb/s Width : 1 280 pixels Height : 536 pixels Display aspect ratio : 2.39:1 Frame rate mode : Constant Frame rate : 24.000 FPS Color space : YUV Chroma subsampling : 4:2:0 Bit depth : 8 bits Scan type : Progressive Bits/(Pixel*Frame) : 0.139 Stream size : 1.46 GiB (82%) Title : -=DoMiNo=- Writing library : x264 core 164 r3190 -DoMiNo Encoding settings : cabac=1 / ref=5 / deblock=1:0:0 / analyse=0x3:0x133 / me=umh / subme=10 / psy=1 / psy_rd=1.00:0.00 / mixed_ref=1 / me_range=32 / chroma_me=1 / trellis=2 / 8x8dct=1 / cqm=0 / deadzone=21,11 / fast_pskip=0 / chroma_qp_offset=-2 / threads=17 / lookahead_threads=4 / sliced_threads=0 / nr=0 / decimate=1 / interlaced=0 / bluray_compat=0 / constrained_intra=0 / bframes=10 / b_pyramid=2 / b_adapt=2 / b_bias=0 / direct=3 / weightb=1 / open_gop=0 / weightp=2 / keyint=240 / keyint_min=24 / scenecut=40 / intra_refresh=0 / rc_lookahead=60 / rc=crf / mbtree=0 / crf=18.5 / qcomp=0.60 / qpmin=0 / qpmax=69 / qpstep=4 / vbv_maxrate=50000 / vbv_bufsize=62500 / crf_max=0.0 / nal_hrd=none / filler=0 / ip_ratio=1.40 / pb_ratio=1.30 / aq=1:1.00 Language : English Default : Yes Forced : No Color range : Limited Color primaries : BT.709 Transfer characteristics : BT.709 Matrix coefficients : BT.709 Audio #1 ID : 2 Format : AC-3 Format/Info : Audio Coding 3 Commercial name : Dolby Digital Codec ID : A_AC3 Duration : 1 h 31 min Bit rate mode : Constant Bit rate : 256 kb/s Channel(s) : 2 channels Channel layout : L R Sampling rate : 48.0 kHz Frame rate : 31.250 FPS (1536 SPF) Compression mode : Lossy Stream size : 168 MiB (9%) Title : Дублированный | Марафон Language : Russian Service kind : Complete Main Default : Yes Forced : No Audio #2 ID : 3 Format : E-AC-3 Format/Info : Enhanced AC-3 Commercial name : Dolby Digital Plus Codec ID : A_EAC3 Duration : 1 h 31 min Bit rate mode : Constant Bit rate : 256 kb/s Channel(s) : 2 channels Channel layout : L R Sampling rate : 48.0 kHz Frame rate : 31.250 FPS (1536 SPF) Compression mode : Lossy Stream size : 168 MiB (9%) Title : Дублированный | Марафон Language : Russian Service kind : Complete Main Default : No Forced : No Menu 00:00:00.000 : en:Chapter 01 00:05:50.000 : en:Chapter 02 00:11:40.000 : en:Chapter 03 00:17:30.000 : en:Chapter 04 00:23:20.000 : en:Chapter 05 00:29:10.000 : en:Chapter 06 00:35:00.000 : en:Chapter 07 00:40:50.000 : en:Chapter 08 00:46:40.000 : en:Chapter 09 00:52:30.000 : en:Chapter 10 00:58:20.000 : en:Chapter 11 01:04:10.000 : en:Chapter 12 01:10:00.000 : en:Chapter 13 01:15:50.000 : en:Chapter 14 01:21:40.000 : en:Chapter 15 01:27:30.000 : en:Chapter 16
Релиз: Присоединяйся к: Кликай на баннеры.

Всего файлов в раздаче: 1 
Cocorico.2024.DUB.WEB-DLRip.720p.x264.seleZen.mkv1.79 GB

Похожие раздачи по запросу - Неожиданные
2024-05-01 magnet Неожиданные связи / Cocorico (2024) WEB-DLRip от ELEKTRI4KA | D 1.46 GB ↑ 0 ↓ 0
2024-05-01 magnet Неожиданные связи / Cocorico (2024) WEB-DL 1080p от ELEKTRI4KA | D 3.76 GB ↑ 0 ↓ 1
2024-05-01 magnet Неожиданные связи / Cocorico (2024) WEB-DL 1080p от New-Team | D 6.16 GB ↑ 1 ↓ 0

Комментарии


Зарегистрируйтесь чтобы добавить комментарий
Торрент клиент
byTorrent - программа для загрузки торрент-файлов.

Скачать byTorrent.exe (1,5 МБ)

Скачать byTorrent.zip (0,6 МБ)

Поддержи torrent.by
российских рублей
(300 российских рублей это 4$)

Обратная связь rss

End game ©