↑↓torrent.by
Поиск
Логин:  Регистрация
Пароль:

Неожиданные связи / Cocorico (2024) WEB-DL 1080p от New-Team | D

download Скачать торрент-файл   magnet Магнитная ссылка Размер: 6.16 GB Раздают: 1 Качают: 1 Добавлен: 2024-05-01 17:00
Пиры будут получены из сети DHT
Последний сидер был замечен сегодня в 14:04
Неожиданные связи / Cocorico Год выпуска: 2024 Выпущено: Франция / Beside Productions, Canal+ , Ciné, M6, M6 Films, SND, W9, White and Yellow Films Жанр: комедия Режиссер: Жюльен Эрве / Julien Hervé В ролях: Кристиан Клавье, Дидье Бурдон, Сильви Тестю, Марианна Деникур, Жюльен Пестель, Хлое Куллу, Жоан Дионне, Патрик Прежан, Шарлин Поль, Дамьен Беллар, Филипп Вьё, Софи Фруассар О фильме: Алис и Франсуа решили пожениться и собираются познакомить своих родителей. По случаю встречи Алиса дарит родителям результаты ДНК-тестов, которые раскроют тайну их происхождения. Но сюрприз обернется фиаско, когда важная аристократическая семья Бувье-Соваж и более простая семья Мартен обнаружат, мягко говоря, неожиданные результаты! Продолжительность: 01:31:19 Перевод: Профессиональный (полное дублирование) | Марафон Субтитры: Французские (forced, SDH) Раздача от: Автор релиза: JNS82. Формат: MKV Качество: WEB-DL 1080p Видео: MPEG-4 AVC, 1920x800, 8760 Кбит/с, (2,40:1), 24,000 fps Аудио #1: 48 kHz, AC3 Dolby Digital, 2/0 (L,R) ch, ~ 256 kbps | RUS | Аудио #2: 48 kHz, E-AC3 Dolby Digital, 3/2 (L,C,R,l,r) + LFE ch, ~ 640 kbps | FRE |
[+] MediaInfoОбщее Уникальный идентификатор : 293645514786820922903229919005872894038 (0xDCEA11A9BDBBAD441B406673E2263056) Полное имя : D:TorrentsCocorico.2024.1080p_от New-Team.mkv Формат : Matroska Версия формата : Version 4 Размер файла : 6,16 Гбайт Продолжительность : 1 ч. 31 м. Общий поток : 9 659 Кбит/сек Название фильма : Cocorico.2024.1080p_от New-Team Дата кодирования : UTC 2024-05-01 11:08:47 Программа кодирования : mkvmerge v79.0 ('Funeral Pyres') 64-bit Библиотека кодирования : libebml v1.4.4 + libmatroska v1.7.1 Видео Идентификатор : 1 Формат : AVC Формат/Информация : Advanced Video Codec Профиль формата : High@L4 Настройки формата : CABAC / 4 Ref Frames Параметр CABAC формата : Да Параметр RefFrames формата : 4 кадра Идентификатор кодека : V_MPEG4/ISO/AVC Продолжительность : 1 ч. 31 м. Вид битрейта : Постоянный Битрейт : 8 760 Кбит/сек Номинальный битрейт : 10 000 Кбит/сек Ширина : 1 920 пикселей Высота : 800 пикселей Соотношение сторон : 2,40:1 Режим частоты кадров : Постоянный Частота кадров : 24,000 кадра/сек Цветовое пространство : YUV Субдискретизация насыщенности : 4:2:0 Битовая глубина : 8 бит Тип развёртки : Прогрессивная Бит/(Пиксели*Кадры) : 0.238 Размер потока : 5,59 Гбайт (91%) Default : Да Forced : Нет Цветовой диапазон : Limited Основные цвета : BT.709 Характеристики трансфера : BT.709 Коэффициенты матрицы : BT.709 Аудио #1 Идентификатор : 2 Формат : AC-3 Формат/Информация : Audio Coding 3 Коммерческое название : Dolby Digital Идентификатор кодека : A_AC3 Продолжительность : 1 ч. 31 м. Вид битрейта : Постоянный Битрейт : 256 Кбит/сек Каналы : 2 канала Channel layout : L R Частота : 48,0 КГц Частота кадров : 31,250 кадров/сек (1536 SPF) Метод сжатия : С потерями Размер потока : 167 Мбайт (3%) Заголовок : DUB - Марафон Язык : Russian Service kind : Complete Main Default : Да Forced : Нет Аудио #2 Идентификатор : 3 Формат : E-AC-3 Формат/Информация : Enhanced AC-3 Коммерческое название : Dolby Digital Plus Идентификатор кодека : A_EAC3 Продолжительность : 1 ч. 31 м. Вид битрейта : Постоянный Битрейт : 640 Кбит/сек Каналы : 6 каналов Channel layout : L R C LFE Ls Rs Частота : 48,0 КГц Частота кадров : 31,250 кадров/сек (1536 SPF) Метод сжатия : С потерями Размер потока : 418 Мбайт (7%) Заголовок : Original Язык : French Service kind : Complete Main Default : Нет Forced : Нет Текст #1 Идентификатор : 4 Формат : UTF-8 Идентификатор кодека : S_TEXT/UTF8 Идентификатор кодека/Информация : UTF-8 Plain Text Продолжительность : 31 м. 16 с. Битрейт : 0 бит/сек Count of elements : 8 Размер потока : 132 байт (0%) Язык : French Default : Нет Forced : Нет Текст #2 Идентификатор : 5 Формат : UTF-8 Идентификатор кодека : S_TEXT/UTF8 Идентификатор кодека/Информация : UTF-8 Plain Text Продолжительность : 1 ч. 30 м. Битрейт : 95 бит/сек Count of elements : 1928 Размер потока : 63,6 Кбайт (0%) Заголовок : SDH Язык : French Default : Нет Forced : Нет

Всего файлов в раздаче: 1 
Cocorico.2024.1080p_от New-Team.mkv6.16 GB

Похожие раздачи по запросу - Неожиданные
2024-05-01 magnet Неожиданные связи / Cocorico (2024) WEB-DLRip от ELEKTRI4KA | D 1.46 GB ↑ 1 ↓ 0
2024-05-01 magnet Неожиданные связи / Cocorico (2024) WEB-DL 1080p от ELEKTRI4KA | D 3.76 GB ↑ 0 ↓ 0
2024-05-01 magnet Неожиданные связи / Cocorico (2024) WEB-DLRip 720p от DoMiNo & селезень | D | Марафон 1.79 GB ↑ 0 ↓ 0

Кто качает (только для создателя раздачи и модераторов):
ПользовательIP:портОтдалПринялОстатокСидируетТоррент клиентОбновился
1 Аноним 195.246.106.22:51413 513.87 MB 6.16 GB 0.00 B да -TR2920- 14:04 2024-05-21
2 Аноним 53.28.78.37:32799 400.00 kB 1.24 GB 6.08 GB нет -qB4390- 14:09 2024-05-21

Комментарии


Зарегистрируйтесь чтобы добавить комментарий
Торрент клиент
byTorrent - программа для загрузки торрент-файлов.

Скачать byTorrent.exe (1,5 МБ)

Скачать byTorrent.zip (0,6 МБ)

Поддержи torrent.by
российских рублей
(300 российских рублей это 4$)

Обратная связь rss

End game ©