↑↓torrent.by
Поиск
Логин:  Регистрация
Пароль:

Затерянный мир / The Lost World (2001) WEB-DLRip от New-Team | P

download Скачать торрент-файл   magnet Магнитная ссылка Размер: 1.46 GB Добавлен: 2024-05-01 17:00
Пиры будут получены из сети DHT
Последний сидер был замечен 2024-05-09 22:45
Страна: Германия, США, Великобритания Производство: A&E Television Networks Inc., BBC Television Centre, RTL Жанр: фантастика, фэнтези, драма, приключения Год выпуска: 2001 Продолжительность: 02:25:24 Перевод: Профессиональный (многоголосый, закадровый) Оригинальная аудиодорожка: нет Cубтитры: нет Режиссер: Стюарт Орм / Stuart Orme В ролях: Боб Хоскинс, Джеймс Фокс, Том Уорд, Мэттью Риз, Илэйн Кэссиди, Питер Фальк, Натаниель Лииз, Тамати Райс, Николь Виппи, Inia Maxwell ... Подробнее об актерах Описание: В начале XX века знаменитый профессор Челленджер делает потрясающее открытие — на удаленном плато в джунглях Амазонки существует удивительный и прекрасный мир, в котором до сих пор обитают динозавры. Миллионы лет эволюции его не коснулись — он остался в первозданном виде. Чтобы переубедить скептиков, группа искателей приключений — сам Челленджер, его чудаковатый коллега, богатая наследница, бесстрашный охотник и молодой репортер — отправляются в захватывающее, полное опасностей путешествие на поиски этого удивительного доисторического мира… Исходник: WEB-DL 1080p Тип релиза: WEB-DLRip Контейнер: AVI Видео: 720x400 (1.80:1), 25,000 кадров/сек, XviD 73 ~ 1235 кбит/сек, 0.172 бит/пиксель Аудио: 48 kHz, Dolby Digital AC3 2.0, 192 кбит/сек Раздача от:
[+] MediaInfo Общее Полное имя : Затерянный мир.2001.WEB-DLRip__by_AVP_Studio.avi Формат : AVI Формат/Информация : Audio Video Interleave Настройки формата : BitmapInfoHeader / WaveFormatEx Размер файла : 1,46 Гбайт Продолжительность : 2 ч. 25 мин. Общий битрейт : 1 437 Кбит/сек Частота кадров : 25,000 кадров/сек Программа кодирования : VirtualDubMod 1.5.10.3 | www.virtualdub-fr.org || (build 2550/release) Библиотека кодирования : VirtualDubMod build 2550/release Видео Идентификатор : 0 Формат : MPEG-4 Visual Профиль формата : Advanced Simple@L5 Настройки формата : BVOP1 / Custom Matrix Параметр BVOP формата : 1 Параметр QPel формата : Нет Параметр GMC формата : Без точки перехода Параметр Matrix формата : Выборочная Идентификатор кодека : XVID Идентификатор кодека/Подсказка : XviD Продолжительность : 2 ч. 25 мин. Битрейт : 1 235 Кбит/сек Ширина : 720 пикселей Высота : 400 пикселей Соотношение сторон дисплея : 16:9 Частота кадров : 25,000 кадров/сек Цветовое пространство : YUV Цветовая субдискретизация : 4:2:0 Битовая глубина : 8 бит Тип развёртки : Прогрессивная Метод сжатия : С потерями Бит/(Пиксели*Кадры) : 0.172 Размер потока : 1,25 Гбайт (86%) Библиотека кодирования : XviD 73 Аудио Идентификатор : 1 Формат : AC-3 Формат/Информация : Audio Coding 3 Коммерческое название : Dolby Digital Идентификатор кодека : 2000 Продолжительность : 2 ч. 25 мин. Вид битрейта : Постоянный Битрейт : 192 Кбит/сек Канал(-ы) : 2 канала Расположение каналов : L R Частота дискретизации : 48,0 КГц Частота кадров : 31,250 кадров/сек (1536 SPF) Метод сжатия : С потерями Размер потока : 200 Мбайт (13%) Выравнивание : Разделение по промежуткам Чередование, продолжительность : 40 мс. (1,00 видеокадр) Чередование, продолжительность пред.загр : 500 мс
[+] Скриншоты

Всего файлов в раздаче: 1 
Затерянный мир.2001.WEB-DLRip_[New-team]_by_AVP_Studio.avi1.46 GB

Похожие раздачи по запросу - Затерянный
2024-05-04 magnet Возвращение в Затерянный мир / Return to the Lost World (1992) DVDRip-AVC от New-Team | P 1.46 GB ↑ 0 ↓ 0
2024-05-04 magnet Затерянный мир / The Lost World (1992) DVDRip-AVC от New-Team | P 1.46 GB ↑ 0 ↓ 0
2024-05-01 magnet Затерянный мир / The Lost World (2001) WEB-DLRip 720p от New-Team | P 4.37 GB ↑ 0 ↓ 0
2024-05-01 magnet Затерянный мир / The Lost World (2001) WEB-DLRip-AVC от New-Team | P 2.91 GB ↑ 0 ↓ 0

Кто качает (только для создателя раздачи и модераторов): Локальные пиры отсутствуют

Комментарии


Зарегистрируйтесь чтобы добавить комментарий
Торрент клиент
byTorrent - программа для загрузки торрент-файлов.

Скачать byTorrent.exe (1,5 МБ)

Скачать byTorrent.zip (0,6 МБ)

Поддержи torrent.by
российских рублей
(300 российских рублей это 4$)

Обратная связь rss

End game ©