↑↓torrent.by
Поиск
Логин:  Регистрация
Пароль:

Лига Справедливости: Кризис на бесконечных землях. Часть 2 / Justice League: Crisis on Infinite Earths - Part Two (2024) BDRip-AVC от New-Team | P

download Скачать торрент-файл   magnet Магнитная ссылка Размер: 2.18 GB Добавлен: 2024-05-01 17:00
Пиры будут получены из сети DHT
Последний сидер был замечен сегодня в 02:17
Лига Справедливости: Кризис на бесконечных землях. Часть 2 / Justice League: Crisis on Infinite Earths - Part Two Год выпуска: 2024 Выпущено: США / DC, Warner Bros. Animation, Warner Bros. Home Entertainment Group Жанр: мультфильм, боевик, приключения Режиссер: Джефф Уоместер / Jeff Wamester В ролях: Дженсен Эклс, Дженнифер Хейл, Стана Катик, Джимми Симпсон, Лу Даймонд Филлипс, Гарри Шам мл., Элдис Ходж, Уилл Фридел, Трой Бэйкер, Гидеон Адлон О фильме: Анти-Монитор – кровожадный злодей, наделенный сверхчеловеческими способностями. Он стремится к безраздельной власти, и готов пойти на все, лишь бы получить под свой контроль все существующие вселенные. Более того, этот безумец ведет охоту на лучших защитников мира, видя в них единственную угрозу для своих планов. Продолжительность: 01:34:43 Перевод: #1: Профессиональный (многоголосый, закадровый) | TVShows #2: Профессиональный (многоголосый, закадровый) | HDRezka Studio Субтитры: Английские. Раздача от: Автор релиза: JNS82. Формат: MKV Качество: BDRip-AVC Видео: MPEG-4 AVC, 1024x576, 2202 Кбит/с, (16:9), 23,976 fps Аудио #1: 48 kHz, AC3 Dolby Digital, 3/2 (L,C,R,l,r) + LFE ch, ~ 448 kbps | RUS | TVShows Аудио #2: 48 kHz, AC3 Dolby Digital, 2/0 (L,R) ch, ~ 192 kbps | RUS | HDRezka Studio Аудио #3: 48 kHz, AC3 Dolby Digital, 3/2 (L,C,R,l,r) + LFE ch, ~ 448 kbps | ENG |
[+] MediaInfoОбщее Уникальный идентификатор : 157724063440530101178972791770714253368 (0x76A88CB75F924969FBCDE3552880A838) Полное имя : D:TorrentsJustice.League.Crisis.on.Infinite.Earths.Part.Two.2024.BDRip-AVC_от New-Team_by_JNS82.mkv Формат : Matroska Версия формата : Version 4 Размер файла : 2,18 Гбайт Продолжительность : 1 ч. 34 м. Общий поток : 3 293 Кбит/сек Название фильма : Justice.League.Crisis.on.Infinite.Earths.Part.Two.2024.BDRip-AVC_от New-Team_by_JNS82 Дата кодирования : UTC 2024-05-01 06:33:10 Программа кодирования : mkvmerge v79.0 ('Funeral Pyres') 64-bit Библиотека кодирования : libebml v1.4.4 + libmatroska v1.7.1 Видео Идентификатор : 1 Формат : AVC Формат/Информация : Advanced Video Codec Профиль формата : High@L4.1 Настройки формата : CABAC / 12 Ref Frames Параметр CABAC формата : Да Параметр RefFrames формата : 12 кадров Идентификатор кодека : V_MPEG4/ISO/AVC Продолжительность : 1 ч. 34 м. Битрейт : 2 202 Кбит/сек Ширина : 1 024 пикселя Высота : 576 пикселей Соотношение сторон : 16:9 Режим частоты кадров : Постоянный Частота кадров : 23,976 (24000/1001) кадра/сек Цветовое пространство : YUV Субдискретизация насыщенности : 4:2:0 Битовая глубина : 8 бит Тип развёртки : Прогрессивная Бит/(Пиксели*Кадры) : 0.156 Размер потока : 1,46 Гбайт (67%) Библиотека кодирования : x264 core 164 r3156+57M NewTeam t_mod_New Настройки программы : cabac=1 / ref=12 / deblock=1:-3:-2 / analyse=0x3:0x113 / me=umh / subme=10 / psy=1 / fade_compensate=0.00 / psy_rd=1.01:0.05 / mixed_ref=1 / me_range=32 / chroma_me=1 / trellis=2 / 8x8dct=1 / cqm=0 / deadzone=21,11 / fast_pskip=0 / chroma_qp_offset=-3 / threads=18 / lookahead_threads=4 / sliced_threads=0 / nr=0 / decimate=0 / interlaced=0 / bluray_compat=0 / constrained_intra=0 / fgo=0 / bframes=10 / b_pyramid=2 / b_adapt=2 / b_bias=0 / direct=3 / weightb=1 / open_gop=0 / weightp=2 / keyint=240 / keyint_min=23 / scenecut=40 / intra_refresh=0 / rc_lookahead=60 / rc=2pass / mbtree=0 / bitrate=2202 / ratetol=1.0 / qcomp=0.60 / qpmin=0:0:0 / qpmax=69:69:69 / qpstep=5 / cplxblur=20.0 / qblur=0.5 / vbv_maxrate=50000 / vbv_bufsize=62500 / nal_hrd=none / filler=0 / ip_ratio=1.40 / pb_ratio=1.30 / aq=1:1.00 / aq-sensitivity=10.00 / aq-factor=1.00:1.00:1.00 / aq2=0 / aq3=0 Язык : English Default : Да Forced : Нет Аудио #1 Идентификатор : 2 Формат : AC-3 Формат/Информация : Audio Coding 3 Коммерческое название : Dolby Digital Идентификатор кодека : A_AC3 Продолжительность : 1 ч. 34 м. Вид битрейта : Постоянный Битрейт : 448 Кбит/сек Каналы : 6 каналов Channel layout : L R C LFE Ls Rs Частота : 44,1 КГц Частота кадров : 28,711 кадров/сек (1536 SPF) Метод сжатия : С потерями Размер потока : 304 Мбайт (14%) Заголовок : MVO - TVShows Язык : Russian Service kind : Complete Main Default : Да Forced : Нет Аудио #2 Идентификатор : 3 Формат : AC-3 Формат/Информация : Audio Coding 3 Коммерческое название : Dolby Digital Идентификатор кодека : A_AC3 Продолжительность : 1 ч. 34 м. Вид битрейта : Постоянный Битрейт : 192 Кбит/сек Каналы : 2 канала Channel layout : L R Частота : 48,0 КГц Частота кадров : 31,250 кадров/сек (1536 SPF) Метод сжатия : С потерями Размер потока : 130 Мбайт (6%) Заголовок : MVO - HDRezka Studio Язык : Russian Service kind : Complete Main Default : Нет Forced : Нет Аудио #3 Идентификатор : 4 Формат : AC-3 Формат/Информация : Audio Coding 3 Коммерческое название : Dolby Digital Идентификатор кодека : A_AC3 Продолжительность : 1 ч. 34 м. Вид битрейта : Постоянный Битрейт : 448 Кбит/сек Каналы : 6 каналов Channel layout : L R C LFE Ls Rs Частота : 48,0 КГц Частота кадров : 31,250 кадров/сек (1536 SPF) Метод сжатия : С потерями Размер потока : 304 Мбайт (14%) Заголовок : Original Язык : English Service kind : Complete Main Default : Нет Forced : Нет Текст Идентификатор : 5 Формат : UTF-8 Идентификатор кодека : S_TEXT/UTF8 Идентификатор кодека/Информация : UTF-8 Plain Text Продолжительность : 1 ч. 29 м. Битрейт : 45 бит/сек Count of elements : 981 Размер потока : 29,9 Кбайт (0%) Заголовок : Язык : English Default : Нет Forced : Нет Меню 00:00:00.000 : en:Chapter 1 00:07:45.048 : en:Chapter 2 00:16:02.879 : en:Chapter 3 00:24:56.578 : en:Chapter 4 00:34:34.489 : en:Chapter 5 00:42:21.497 : en:Chapter 6 00:51:42.141 : en:Chapter 7 01:01:11.710 : en:Chapter 8 01:10:18.798 : en:Chapter 9 01:18:47.181 : en:Chapter 10 01:25:34.046 : en:Chapter 11 01:32:06.479 : en:Chapter 12

Всего файлов в раздаче: 1 
Justice.League.Crisis.on.Infinite.Earths.Part.Two.2024.BDRip-AVC_от New-Team_by_JNS82.mkv2.18 GB

Похожие раздачи по запросу - Лига
2024-05-12 magnet КВН-2024. Высшая лига. 1/8 финала. Игра четвертая [эфир от 11.05] (2024) SATRip 1.37 GB ↑ 0 ↓ 0
2024-05-12 magnet КВН-2024. Высшая лига. 1/8 финала. Игра четвертая [эфир от 11.05] (2024) WEBRip 1080p 6.08 GB ↑ 0 ↓ 0
2024-05-11 magnet Лига городов [02х14] [эфир от 10.05] (2024) WEBRip 1080p от DolgOFF 2.47 GB ↑ 0 ↓ 0
2024-05-10 magnet Футбол. Лига Европы и Лига Конференций 2023-2024. 1/2 финала. Вторые матчи. Обзор матчей [09.05] (2024) IPTV 1080р | 50fps 1.57 GB ↑ 0 ↓ 0
2024-05-10 magnet Футбол. Лига Европы 2023-2024. 1/2 финала. 2-й матч. Байер - Рома [09.05] (2024) IPTVRip 720р 2.15 GB ↑ 0 ↓ 0
2024-05-10 magnet Футбол. Лига Чемпионов 2023-2024. 1/2 финала. Ответные матчи. 2-й день. Обзор [08.05] (2024) IPTV 1080р 1.02 GB ↑ 0 ↓ 0
2024-05-09 magnet Футбол. Лига Чемпионов 2023-2024. 1/2 финала. 2-й матч. Реал Мадрид - Бавария [08.05] (2024) WEBRip 720р | 50fps 2.97 GB ↑ 0 ↓ 0

Комментарии


Зарегистрируйтесь чтобы добавить комментарий
Торрент клиент
byTorrent - программа для загрузки торрент-файлов.

Скачать byTorrent.exe (1,5 МБ)

Скачать byTorrent.zip (0,6 МБ)

Поддержи torrent.by
российских рублей
(300 российских рублей это 4$)

Обратная связь rss

End game ©