↑↓torrent.by
Поиск
Логин:  Регистрация
Пароль:

Затерянный мир / The Lost World (2001) WEB-DLRip 720p от New-Team | P

download Скачать торрент-файл   magnet Магнитная ссылка Размер: 4.37 GB Добавлен: 2024-05-01 17:00
Пиры будут получены из сети DHT
Последний сидер был замечен 2024-05-06 19:52
Страна: Германия, США, Великобритания Производство: A&E Television Networks Inc., BBC Television Centre, RTL Жанр: фантастика, фэнтези, драма, приключения Год выпуска: 2001 Продолжительность: 02:25:24 Перевод: Профессиональный (многоголосый, закадровый) Оригинальная аудиодорожка: английский Cубтитры: нет Режиссер: Стюарт Орм / Stuart Orme В ролях: Боб Хоскинс, Джеймс Фокс, Том Уорд, Мэттью Риз, Илэйн Кэссиди, Питер Фальк, Натаниель Лииз, Тамати Райс, Николь Виппи, Inia Maxwell ... Подробнее об актерах Описание: В начале XX века знаменитый профессор Челленджер делает потрясающее открытие — на удаленном плато в джунглях Амазонки существует удивительный и прекрасный мир, в котором до сих пор обитают динозавры. Миллионы лет эволюции его не коснулись — он остался в первозданном виде. Чтобы переубедить скептиков, группа искателей приключений — сам Челленджер, его чудаковатый коллега, богатая наследница, бесстрашный охотник и молодой репортер — отправляются в захватывающее, полное опасностей путешествие на поиски этого удивительного доисторического мира… Исходник: WEB-DL 1080p Тип релиза: WEB-DLRip 720p Контейнер: MKV Видео: 1280x720 (16:9), 25,000 кадров/сек, x264 core 164 r3182 ~ 3531 кбит/сек, 0.153 бит/пиксель9 Аудио: 48 кГц, Dolby Digital AC3 5.1, 384 кбит/сек MVO Аудио: 48 кГц, Dolby Digital AC3 5.1, 384 кбит/сек Английский Раздача от:
[+] MediaInfo Общее Полное имя : Затерянный мир.2001.WEB-DLRip720p__by_AVP_Studio.mkv Формат : Matroska Версия формата : Version 4 Размер файла : 4,37 Гбайт Продолжительность : 2 ч. 25 мин. Общий битрейт : 4 301 Кбит/сек Частота кадров : 25,000 кадров/сек Дата кодирования : 2024-04-30 17:32:33 UTC Программа кодирования : mkvmerge v83.0 ('Circle Of Friends') 64-bit Библиотека кодирования : libebml v1.4.5 + libmatroska v1.7.1 Видео Идентификатор : 1 Формат : AVC Формат/Информация : Advanced Video Codec Профиль формата : High@L4.1 Настройки формата : CABAC / 8 Ref Frames Параметр CABAC формата : Да Параметр RefFrames формата : 8 кадров Идентификатор кодека : V_MPEG4/ISO/AVC Продолжительность : 2 ч. 25 мин. Битрейт : 3 531 Кбит/сек Ширина : 1 280 пикселей Высота : 720 пикселей Соотношение сторон дисплея : 16:9 Режим частоты кадров : Постоянный Частота кадров : 25,000 кадров/сек Цветовое пространство : YUV Цветовая субдискретизация : 4:2:0 Битовая глубина : 8 бит Тип развёртки : Прогрессивная Бит/(Пиксели*Кадры) : 0.153 Размер потока : 3,59 Гбайт (82%) Заголовок : Исходник WEB-DL 1080p Библиотека кодирования : x264 core 164 r3182 be4f020 Параметры библиотеки кодирования : cabac=1 / ref=8 / deblock=1:-3:-3 / analyse=0x3:0x133 / me=umh / subme=10 / psy=1 / psy_rd=1.00:0.00 / mixed_ref=1 / me_range=32 / chroma_me=1 / trellis=2 / 8x8dct=1 / cqm=0 / deadzone=21,11 / fast_pskip=1 / chroma_qp_offset=-2 / threads=6 / lookahead_threads=1 / sliced_threads=0 / nr=0 / decimate=0 / interlaced=0 / bluray_compat=0 / constrained_intra=0 / bframes=8 / b_pyramid=2 / b_adapt=2 / b_bias=0 / direct=3 / weightb=1 / open_gop=0 / weightp=2 / keyint=250 / keyint_min=25 / scenecut=40 / intra_refresh=0 / rc=2pass / mbtree=0 / bitrate=3531 / ratetol=1.0 / qcomp=0.60 / qpmin=0 / qpmax=69 / qpstep=4 / cplxblur=20.0 / qblur=0.5 / ip_ratio=1.40 / pb_ratio=1.30 / aq=1:1.00 Язык : Русский По умолчанию : Да Принудительно : Нет Аудио #1 Идентификатор : 2 Формат : AC-3 Формат/Информация : Audio Coding 3 Коммерческое название : Dolby Digital Идентификатор кодека : A_AC3 Продолжительность : 2 ч. 25 мин. Вид битрейта : Постоянный Битрейт : 384 Кбит/сек Канал(-ы) : 6 каналов Расположение каналов : L R C LFE Ls Rs Частота дискретизации : 48,0 КГц Частота кадров : 31,250 кадров/сек (1536 SPF) Метод сжатия : С потерями Размер потока : 399 Мбайт (9%) Заголовок : Профессиональный (многоголосый закадровый) Язык : Русский По умолчанию : Да Принудительно : Нет AC3_metadata cmixlev : -3.0 dB surmixlev : -3 dB Аудио #2 Идентификатор : 3 Формат : AC-3 Формат/Информация : Audio Coding 3 Коммерческое название : Dolby Digital Идентификатор кодека : A_AC3 Продолжительность : 2 ч. 25 мин. Вид битрейта : Постоянный Битрейт : 384 Кбит/сек Канал(-ы) : 6 каналов Расположение каналов : L R C LFE Ls Rs Частота дискретизации : 48,0 КГц Частота кадров : 31,250 кадров/сек (1536 SPF) Метод сжатия : С потерями Размер потока : 399 Мбайт (9%) Заголовок : Оригинал Язык : Английский По умолчанию : Да Принудительно : Нет AC3_metadata cmixlev : -4.5 dB surmixlev : -6 dB
[+] Скриншоты

Всего файлов в раздаче: 1 
Затерянный мир.2001.WEB-DLRip720p_[New-team]_by_AVP_Studio.mkv4.37 GB

Похожие раздачи по запросу - Затерянный
2024-05-04 magnet Возвращение в Затерянный мир / Return to the Lost World (1992) DVDRip-AVC от New-Team | P 1.46 GB ↑ 0 ↓ 0
2024-05-04 magnet Затерянный мир / The Lost World (1992) DVDRip-AVC от New-Team | P 1.46 GB ↑ 0 ↓ 0
2024-05-01 magnet Затерянный мир / The Lost World (2001) WEB-DLRip от New-Team | P 1.46 GB ↑ 0 ↓ 0
2024-05-01 magnet Затерянный мир / The Lost World (2001) WEB-DLRip-AVC от New-Team | P 2.91 GB ↑ 0 ↓ 0

Кто качает (только для создателя раздачи и модераторов): Локальные пиры отсутствуют

Комментарии


Зарегистрируйтесь чтобы добавить комментарий
Торрент клиент
byTorrent - программа для загрузки торрент-файлов.

Скачать byTorrent.exe (1,5 МБ)

Скачать byTorrent.zip (0,6 МБ)

Поддержи torrent.by
российских рублей
(300 российских рублей это 4$)

Обратная связь rss

End game ©