↑↓torrent.by
Поиск
Логин:  Регистрация
Пароль:

Тропою джунглей (1959) SATRip-AVC

download Скачать торрент-файл   magnet Магнитная ссылка Размер: 936.99 MB Добавлен: 2024-05-02 05:00
Пиры будут получены из сети DHT
Последний сидер был замечен 2024-05-02 05:00
Информация о фильме Название: Тропою джунглей Год выхода: 1959 Жанр: Документальный, природа, флора, фауна Режиссер: Александр Згуриди О фильме: 120 лет со д/р. Александр Згуриди (1904-1998), великий мастер рассказов о животных приводит нас в леса Южного Китая, и в содружестве с оператором Ниной Юрушкиной и своими китайскими коллегами открывает нам всю красоту и роскошь первозданной тропической природы, запечатлевая самые тайные и драматичные события в ее жизни. Вот схватка мангуста и кобры, а вот длиннорукий гиббон в смертельном соревновании на ловкость обыгрывает своего заклятого врага — леопарда, а вот мамаша-макака, старательно воспитывающая двух малышей. Один из них становится главным героем этого фильма. Згуриди критиковали за то, что он наделяет "братьев наших меньших", интеллектом, развитыми эмоциями и даже характерами, но зрители всегда ему верили, а потом, и наука нашла доказательства его правоты. Страна: Россия Студия: Московская киностудия научно популярных фильмов Продолжительность: 01:06:46 Перевод: Не требуется Файл Кодек: AVC/H.264 Качество: SATRip-AVC Видео: 720x520 (1.385:1), 25 fps, AVC (H.264), High@L4,1, 1800 kbps avg, 0.192 bit/pixel Звук: Русский 48 kHz, AC3 Dolby Digital, 2/0 (L,R) ch, ~160.00 kbps avg Семпл
[+] MediaInfoComplete name : F:НаладкиНовая папкаTропою джунглей.mkv Format : Matroska Format version : Version 4 File size : 937 MiB Duration : 1 h 6 min Overall bit rate : 1 962 kb/s Frame rate : 25.000 FPS Encoded date : 2024-02-23 14:31:43 UTC Writing application : mkvmerge v6.6.0 ('The Edge Of The In Between') built on Dec 1 2013 17:55:00 Writing library : libebml v1.3.0 + libmatroska v1.4.1 Video ID : 1 Format : AVC Format/Info : Advanced Video Codec Format profile : High@L4.1 Format settings : CABAC / 9 Ref Frames Format settings, CABAC : Yes Format settings, Reference : 9 frames Codec ID : V_MPEG4/ISO/AVC Duration : 1 h 6 min Bit rate : 1 800 kb/s Width : 720 pixels Height : 520 pixels Display aspect ratio : 1.385 Frame rate mode : Constant Frame rate : 25.000 FPS Color space : YUV Chroma subsampling : 4:2:0 Bit depth : 8 bits Scan type : Progressive Bits/(Pixel*Frame) : 0.192 Stream size : 842 MiB (90%) Writing library : x264 core 164 r3107 a8b68eb Encoding settings : cabac=1 / ref=9 / deblock=1:-1:-1 / analyse=0x3:0x113 / me=umh / subme=10 / psy=1 / psy_rd=1.00:0.15 / mixed_ref=1 / me_range=32 / chroma_me=1 / trellis=2 / 8x8dct=1 / cqm=0 / deadzone=21,11 / fast_pskip=1 / chroma_qp_offset=-3 / threads=16 / lookahead_threads=2 / sliced_threads=0 / nr=0 / decimate=1 / interlaced=0 / bluray_compat=0 / constrained_intra=0 / bframes=10 / b_pyramid=2 / b_adapt=2 / b_bias=0 / direct=1 / weightb=1 / open_gop=0 / weightp=2 / keyint=250 / keyint_min=25 / scenecut=40 / intra_refresh=0 / rc_lookahead=60 / rc=2pass / mbtree=1 / bitrate=1800 / ratetol=1.0 / qcomp=0.60 / qpmin=0 / qpmax=69 / qpstep=4 / cplxblur=20.0 / qblur=0.5 / vbv_maxrate=14000 / vbv_bufsize=14000 / nal_hrd=none / filler=0 / ip_ratio=1.40 / aq=1:1.00 Default : Yes Forced : No Audio ID : 2 Format : AC-3 Format/Info : Audio Coding 3 Commercial name : Dolby Digital Codec ID : A_AC3 Duration : 1 h 6 min Bit rate mode : Constant Bit rate : 160 kb/s Channel(s) : 2 channels Channel layout : L R Sampling rate : 48.0 kHz Frame rate : 31.250 FPS (1536 SPF) Compression mode : Lossy Stream size : 76.4 MiB (8%) Language : Russian Service kind : Complete Main Default : Yes Forced : No
[+] Скриншоты
Релиз от: kyba

Всего файлов в раздаче: 1 
Tропою джунглей.mkv936.99 MB

Кто качает (только для создателя раздачи и модераторов): Локальные пиры отсутствуют

Комментарии


Зарегистрируйтесь чтобы добавить комментарий
Торрент клиент
byTorrent - программа для загрузки торрент-файлов.

Скачать byTorrent.exe (1,5 МБ)

Скачать byTorrent.zip (0,6 МБ)

Поддержи torrent.by
российских рублей
(300 российских рублей это 4$)

Обратная связь rss

End game ©