↑↓torrent.by
Поиск
Логин:  Регистрация
Пароль:

Ложный приговор / Угрызения совести / Duk sit dai jong / A Guilty Conscience (2023) WEB-DL 1080p | D

download Скачать торрент-файл   magnet Магнитная ссылка Размер: 5.25 GB Добавлен: 2024-05-02 05:00
Пиры будут получены из сети DHT
Последний сидер был замечен 2024-05-02 23:34
Название: Ложный приговор / Угрызения совести Оригинальное название: Duk sit dai jong / A Guilty Conscience Год выпуска: 2023 Жанр: Драма Выпущено: Гонгконг, Edko Films, Film Development Fund of Hong Kong, Irresistible Films Режиссер: Нг Вай-Лунь В ролях: Дайо Вон, Луиз Вон, Хо Кай-Ва, Ренси Юн, Цзэ Кван-Хо, Адам Пак, Винсент Кок, Боуи Лам, Шелдон Ло, Фиш Лью О фильме: Адвокат Адриан Лам безответственно подошел к делу о громком убийстве, в результате невиновная женщина была приговорена к 17 годам тюрьмы. Чтобы исправить свою ужасную ошибку и очистить имя жертвы, адвокат с коллегами пытаются разобраться в запутанном процессе, но против них выступает очень богатая и влиятельная семья. Продолжительность: 02:13:25 Перевод: Дублированный Качество: WEB-DL 1080p Формат: MKV Видео: MPEG-4 AVC, 5120 Кбит/с, 1920x816 Аудио: AAC, 6 ch, 512 Кбит/с Субтитры: отсутствуют
[+] MIGeneral Unique ID : 79390587553472432675612473287947772598 (0x3BBA122C37221A043C0A13CEA536E2B6) Complete name : D:A.Guilty.Conscience.2023.1080p.WEB-DL.mkv Format : Matroska Format version : Version 4 File size : 5.25 GiB Duration : 2 h 13 min Overall bit rate : 5 631 kb/s Encoded date : UTC 2024-05-01 10:30:55 Writing application : mkvmerge v62.0.0 ('Apollo') 64-bit Writing library : libebml v1.4.2 + libmatroska v1.6.4 Video ID : 1 Format : AVC Format/Info : Advanced Video Codec Format profile : High@L4 Format settings : CABAC / 4 Ref Frames Format settings, CABAC : Yes Format settings, Reference frames : 4 frames Codec ID : V_MPEG4/ISO/AVC Duration : 2 h 13 min Bit rate : 5 120 kb/s Width : 1 920 pixels Height : 816 pixels Display aspect ratio : 2.35:1 Frame rate mode : Constant Frame rate : 24.000 FPS Color space : YUV Chroma subsampling : 4:2:0 Bit depth : 8 bits Scan type : Progressive Bits/(Pixel*Frame) : 0.136 Stream size : 4.77 GiB (91%) Writing library : x264 core 152 r2854 e9a5903 Encoding settings : cabac=1 / ref=3 / deblock=1:0:0 / analyse=0x3:0x113 / me=hex / subme=7 / psy=1 / psy_rd=1.00:0.00 / mixed_ref=1 / me_range=16 / chroma_me=1 / trellis=1 / 8x8dct=1 / cqm=0 / deadzone=21,11 / fast_pskip=1 / chroma_qp_offset=-2 / threads=25 / lookahead_threads=4 / sliced_threads=0 / nr=0 / decimate=1 / interlaced=0 / bluray_compat=0 / constrained_intra=0 / bframes=6 / b_pyramid=2 / b_adapt=1 / b_bias=0 / direct=1 / weightb=1 / open_gop=0 / weightp=2 / keyint=48 / keyint_min=25 / scenecut=0 / intra_refresh=0 / rc_lookahead=40 / rc=2pass / mbtree=1 / bitrate=5120 / ratetol=1.0 / qcomp=0.60 / qpmin=0 / qpmax=69 / qpstep=4 / cplxblur=20.0 / qblur=0.5 / vbv_maxrate=7680 / vbv_bufsize=20480 / nal_hrd=none / filler=0 / ip_ratio=1.40 / aq=1:1.00 Default : Yes Forced : No Audio ID : 2 Format : AAC LC Format/Info : Advanced Audio Codec Low Complexity Codec ID : A_AAC-2 Duration : 2 h 13 min Bit rate : 512 kb/s Channel(s) : 6 channels Channel layout : C L R Ls Rs LFE Sampling rate : 48.0 kHz Frame rate : 46.875 FPS (1024 SPF) Compression mode : Lossy Stream size : 489 MiB (9%) Language : Russian Default : Yes Forced : No
[+] Скриншоты

Всего файлов в раздаче: 1 
A.Guilty.Conscience.2023.1080p.WEB-DL.mkv5.25 GB

Похожие раздачи по запросу - Ложный
2024-05-02 magnet Ложный приговор / Угрызения совести / Duk sit dai jong / A Guilty Conscience (2023) BDRip от New-Team | D 2.18 GB ↑ 0 ↓ 0

Комментарии


Зарегистрируйтесь чтобы добавить комментарий
Торрент клиент
byTorrent - программа для загрузки торрент-файлов.

Скачать byTorrent.exe (1,5 МБ)

Скачать byTorrent.zip (0,6 МБ)

Поддержи torrent.by
российских рублей
(300 российских рублей это 4$)

Обратная связь rss

End game ©