↑↓torrent.by
Поиск
Логин:  Регистрация
Пароль:

Загадочное убийство / Murder Mystery (2019) WEB-DL 1080p | Пифагор, Кубик в кубе

download Скачать торрент-файл   magnet Магнитная ссылка Размер: 4.92 GB Добавлен: 2024-05-02 05:00
Пиры будут получены из сети DHT
Последний сидер был замечен 2024-05-05 11:57
Информация о фильме Название: Загадочное убийство Оригинальное название: Murder Mystery Год выхода: 2019 Жанр: комедия, детектив Режиссер: Кайл Ньюачек В ролях: Адам Сэндлер, Дженнифер Энистон, Люк Эванс, Теренс Стэмп, Джемма Артертон, Дэни Бун, Джон Кани, Адиль Ахтар, Оулавюр Дарри Оулафссон, Луис Херардо Мендес О фильме: После 15 лет брака американская супружеская пара Ник и Одри Шпиц, полицейский и парикмахерша, наконец-то отправляется в отпуск в Европу. В самолёте супруга умудряется познакомиться с английским аристократом, и тот приглашает их с мужем провести время на яхте дяди — известного миллиардера. Супруги Шпиц оказываются в высшем обществе в окружении невиданной роскоши, когда вдруг престарелого главу семейства убивают при загадочных обстоятельствах. Мотивы есть у всех присутствующих, но французский детектив решает, что главные подозреваемые — американцы, при этом большая любительница детективов Одри видит в этой ситуации главное приключение своей жизни. Страна: США Студия: Endgame Entertainment, Happy Madison Productions, Tower Hill Entertainment, Vinson Films Продолжительность: 01:38:30 Перевод: Профессиональный (дублированный), Профессиональный (двухголосый, закадровый) Файл Качество: WEB-DL 1080p Формат: Matroska Видео: 1920x1080 at 24.000 fps, MPEG-4 AVC, ~5000 kbps avg Аудио#1: Russian: 48 kHz, Е-AC3, 3/2 (L,C,R,l,r) + LFE ch, ~640 kbps avg |Дубляж, Пифагор по заказу Netflix| Аудио#2: Russian: 48 kHz, AC3, 3/2 (L,C,R,l,r) + LFE ch, ~448 kbps avg |Двухголосый закадровый, Кубик в кубе| Аудио#3: Ukrainian: 48 kHz, Е-AC3, 3/2 (L,C,R,l,r) + LFE ch, ~640 kbps avg |Дубляж, Postmodern| Аудио#4: English: 48 kHz, E-AC3, 3/2 (L,C,R,l,r) + LFE ch, ~640 kbps avg Субтитры: Russian (Forced, Full), English и другие ***Примечание: Без рекламы ***Релиз: Wilmots@EniaHD
[+] MediaInfoGeneral Unique ID : 245478169329436961287404087487402779051 (0xB8AD602DE84F8437515FDC3BC48EA1AB) Complete name : Murder.Mystery.2019.1080p.NF.WEB-DL.H.264-EniaHD.mkv Format : Matroska Format version : Version 4 File size : 4.92 GiB Duration : 1 h 38 min Overall bit rate mode : Variable Overall bit rate : 7 156 kb/s Frame rate : 24.000 FPS Movie name : Murder Mystery (2019) - EniaHD Writing application : mkvmerge v57.0.0 ('Till The End') 64-bit Writing library : libebml v1.4.2 + libmatroska v1.6.4 Video ID : 1 Format : AVC Format/Info : Advanced Video Codec Format profile : Main@L4 Format settings : CABAC / 3 Ref Frames Format settings, CABAC : Yes Format settings, Reference fra : 3 frames Codec ID : V_MPEG4/ISO/AVC Duration : 1 h 38 min Bit rate mode : Variable Bit rate : 5 000 kb/s Maximum bit rate : 7 500 kb/s Width : 1 920 pixels Height : 1 080 pixels Display aspect ratio : 16:9 Frame rate mode : Constant Frame rate : 24.000 FPS Color space : YUV Chroma subsampling : 4:2:0 Bit depth : 8 bits Scan type : Progressive Bits/(Pixel*Frame) : 0.100 Stream size : 3.29 GiB (67%) Writing library : x264 core 148 r2727 7d026e8 Encoding settings : cabac=1 / ref=3 / deblock=1:0:0 / analyse=0x1:0x111 / me=umh / subme=10 / psy=1 / psy_rd=1.00:0.00 / mixed_ref=1 / me_range=24 / chroma_me=1 / trellis=2 / 8x8dct=0 / cqm=0 / deadzone=21,11 / fast_pskip=1 / chroma_qp_offset=-2 / threads=6 / lookahead_threads=1 / sliced_threads=0 / nr=0 / decimate=1 / interlaced=0 / bluray_compat=0 / stitchable=1 / constrained_intra=0 / bframes=2 / b_pyramid=0 / b_adapt=2 / b_bias=0 / direct=3 / weightb=1 / open_gop=0 / weightp=2 / keyint=240 / keyint_min=121 / scenecut=0 / intra_refresh=0 / rc_lookahead=48 / rc=2pass / mbtree=1 / bitrate=5000 / ratetol=1.0 / qcomp=0.50 / qpmin=6 / qpmax=51 / qpstep=4 / cplxblur=20.0 / qblur=0.5 / vbv_maxrate=7500 / vbv_bufsize=10000 / nal_hrd=vbr / filler=0 / ip_ratio=1.40 / aq=1:1.00 Default : Yes Forced : No Audio #1 ID : 2 Format : E-AC-3 Format/Info : Enhanced AC-3 Commercial name : Dolby Digital Plus Codec ID : A_EAC3 Duration : 1 h 38 min Bit rate mode : Constant Bit rate : 640 kb/s Channel(s) : 6 channels Channel layout : L R C LFE Ls Rs Sampling rate : 48.0 kHz Frame rate : 31.250 FPS (1536 SPF) Compression mode : Lossy Stream size : 451 MiB (9%) Title : Russian (Пифагор) Language : Russian Service kind : Complete Main Default : Yes Forced : No Audio #2 ID : 3 Format : AC-3 Format/Info : Audio Coding 3 Commercial name : Dolby Digital Codec ID : A_AC3 Duration : 1 h 37 min Bit rate mode : Constant Bit rate : 448 kb/s Channel(s) : 6 channels Channel layout : L R C LFE Ls Rs Sampling rate : 48.0 kHz Frame rate : 31.250 FPS (1536 SPF) Compression mode : Lossy Stream size : 313 MiB (6%) Title : Russian (Кубик в Кубе) Language : Russian Service kind : Complete Main Default : No Forced : No Audio #3 ID : 4 Format : E-AC-3 Format/Info : Enhanced AC-3 Commercial name : Dolby Digital Plus Codec ID : A_EAC3 Duration : 1 h 38 min Bit rate mode : Constant Bit rate : 640 kb/s Channel(s) : 6 channels Channel layout : L R C LFE Ls Rs Sampling rate : 48.0 kHz Frame rate : 31.250 FPS (1536 SPF) Compression mode : Lossy Stream size : 451 MiB (9%) Title : Ukrainian (Postmodern) Language : Ukrainian Service kind : Complete Main Default : No Forced : No Audio #4 ID : 5 Format : E-AC-3 Format/Info : Enhanced AC-3 Commercial name : Dolby Digital Plus Codec ID : A_EAC3 Duration : 1 h 38 min Bit rate mode : Constant Bit rate : 640 kb/s Channel(s) : 6 channels Channel layout : L R C LFE Ls Rs Sampling rate : 48.0 kHz Frame rate : 31.250 FPS (1536 SPF) Compression mode : Lossy Stream size : 451 MiB (9%) Title : English Language : English Service kind : Complete Main Default : No Forced : No Text #1 ID : 6 Format : UTF-8 Codec ID : S_TEXT/UTF8 Codec ID/Info : UTF-8 Plain Text Duration : 1 h 27 min Bit rate : 0 b/s Frame rate : 0.003 FPS Count of elements : 14 Stream size : 503 Bytes (0%) Title : Russian (Forced) Language : Russian Default : Yes Forced : No Text #2 ID : 7 Format : UTF-8 Codec ID : S_TEXT/UTF8 Codec ID/Info : UTF-8 Plain Text Duration : 1 h 36 min Bit rate : 118 b/s Frame rate : 0.290 FPS Count of elements : 1674 Stream size : 84.0 KiB (0%) Title : Russian Language : Russian Default : No Forced : No Text #3 ID : 8 Format : UTF-8 Codec ID : S_TEXT/UTF8 Codec ID/Info : UTF-8 Plain Text Duration : 1 h 28 min Bit rate : 106 b/s Frame rate : 0.383 FPS Count of elements : 2036 Stream size : 69.3 KiB (0%) Title : English (SDH) Language : English Default : No Forced : No Text #4 ID : 9 Format : UTF-8 Codec ID : S_TEXT/UTF8 Codec ID/Info : UTF-8 Plain Text Duration : 1 h 36 min Bit rate : 83 b/s Frame rate : 0.290 FPS Count of elements : 1678 Stream size : 58.6 KiB (0%) Title : French Language : French Default : No Forced : No Text #5 ID : 10 Format : UTF-8 Codec ID : S_TEXT/UTF8 Codec ID/Info : UTF-8 Plain Text Duration : 1 h 36 min Bit rate : 78 b/s Frame rate : 0.287 FPS Count of elements : 1660 Stream size : 55.5 KiB (0%) Title : German Language : German Default : No Forced : No Text #6 ID : 11 Format : UTF-8 Codec ID : S_TEXT/UTF8 Codec ID/Info : UTF-8 Plain Text Duration : 1 h 36 min Bit rate : 125 b/s Frame rate : 0.285 FPS Count of elements : 1644 Stream size : 88.8 KiB (0%) Title : Hebrew Language : Hebrew Default : No Forced : No Text #7 ID : 12 Format : UTF-8 Codec ID : S_TEXT/UTF8 Codec ID/Info : UTF-8 Plain Text Duration : 1 h 36 min Bit rate : 220 b/s Frame rate : 0.307 FPS Count of elements : 1775 Stream size : 156 KiB (0%) Title : Hindi Language : Hindi Default : No Forced : No Text #8 ID : 13 Format : UTF-8 Codec ID : S_TEXT/UTF8 Codec ID/Info : UTF-8 Plain Text Duration : 1 h 36 min Bit rate : 80 b/s Frame rate : 0.286 FPS Count of elements : 1650 Stream size : 56.9 KiB (0%) Title : Italian Language : Italian Default : No Forced : No Text #9 ID : 14 Format : UTF-8 Codec ID : S_TEXT/UTF8 Codec ID/Info : UTF-8 Plain Text Duration : 1 h 36 min Bit rate : 76 b/s Frame rate : 0.303 FPS Count of elements : 1748 Stream size : 53.9 KiB (0%) Title : Portuguese Language : Portuguese (BR) Default : No Forced : No Text #10 ID : 15 Format : UTF-8 Codec ID : S_TEXT/UTF8 Codec ID/Info : UTF-8 Plain Text Duration : 1 h 36 min Bit rate : 78 b/s Frame rate : 0.296 FPS Count of elements : 1708 Stream size : 55.7 KiB (0%) Title : Romanian Language : Romanian Default : No Forced : No Text #11 ID : 16 Format : UTF-8 Codec ID : S_TEXT/UTF8 Codec ID/Info : UTF-8 Plain Text Duration : 1 h 36 min Bit rate : 76 b/s Frame rate : 0.292 FPS Count of elements : 1689 Stream size : 54.1 KiB (0%) Title : Spanish Language : Spanish (Latin America) Default : No Forced : No Text #12 ID : 17 Format : UTF-8 Codec ID : S_TEXT/UTF8 Codec ID/Info : UTF-8 Plain Text Duration : 1 h 36 min Bit rate : 124 b/s Frame rate : 0.298 FPS Count of elements : 1721 Stream size : 87.5 KiB (0%) Title : Ukrainian Language : Ukrainian Default : No Forced : No Text #13 ID : 18 Format : UTF-8 Codec ID : S_TEXT/UTF8 Codec ID/Info : UTF-8 Plain Text Duration : 1 h 27 min Bit rate : 0 b/s Frame rate : 0.003 FPS Count of elements : 15 Stream size : 522 Bytes (0%) Title : Ukrainian (Forced) Language : Ukrainian Default : No Forced : No Menu 00:00:00.000 : Part 01 01:30:01.450 : Credits
[+] Скриншоты

Всего файлов в раздаче: 1 
Murder.Mystery.2019.1080p.NF.WEB-DL.H.264-EniaHD.mkv4.92 GB

Комментарии


Зарегистрируйтесь чтобы добавить комментарий
Торрент клиент
byTorrent - программа для загрузки торрент-файлов.

Скачать byTorrent.exe (1,5 МБ)

Скачать byTorrent.zip (0,6 МБ)

Поддержи torrent.by
российских рублей
(300 российских рублей это 4$)

Обратная связь rss

End game ©