↑↓torrent.by
Поиск
Логин:  Регистрация
Пароль:

Артур, ты король / Arthur the King (2024) WEB-DL-HEVC 2160p | 4K | SDR | D, L

download Скачать торрент-файл   magnet Магнитная ссылка Размер: 16.32 GB Добавлен: 2024-05-02 11:00
Пиры будут получены из сети DHT
Последний сидер был замечен вчера в 21:05
Информация о фильме Название: Артур, ты король Оригинальное название: Arthur the King Год выпуска: 2024 Жанр: драма, приключения Режиссер: Саймон Селлан Джонс / Simon Cellan Jones В ролях: Марк Уолберг, Симу Лю, Джульет Райлэнс, Натали Эммануэль, Али Сулиман, Беар Гриллс, Пол Гилфойл, Роб Коллинз, Карлтон Бёрд, Сиси Валентина О фильме: Это было последнее соревнование капитана по приключенческим гонкам Майкла Линднорда, он был полон решимости ничему не позволить встать у него на пути. Собрав первоклассную команду, он не мог и представить, что в 700-километровом забеге у них появится неожиданный попутчик - пес по кличке Артур, встреча с которым изменит не только исход гонки, но и их жизнь. Выпущено: США / Lionsgate, Tooley Productions Продолжительность: 01:47:34 Перевод 1: Дублированный | Мосфильм-Мастер Перевод 2: Любительский (многоголосый, закадровый) | Soundmasters Субтитры: Русские (Форсированные), Английские (Full, SDH) Файл Тип релиза: WEB-DL 2160p Контейнер: MKV Видео: HEVC/H.265, 3832x1592p (2.40:1), 20.2 Mb/s, 23.976 fps. Аудио 1: AC3 Dolby Digital, 3/2 (L,C,R,l,r) + LFE ch, 48.0 KHz, 448 Kbps | Мосфильм-Мастер Аудио 2: AC3 Dolby Digital, 3/2 (L,C,R,l,r) + LFE ch, 48.0 KHz, 448 Kbps | Soundmasters Аудио 3: E-AC-3 JOC, 3/2 (L,C,R,l,r) + LFE ch, 48.0 KHz, 768 Kbps Формат субтитров: softsub (SRT)
[+] M/IGeneral Unique ID : 33258481959631701868582862215573752799 (0x190559C2F58FF8AD495ED6362A754BDF) Complete name : Arthur the King (2024) WEB-DL 2160p. SDR.mkv Format : Matroska Format version : Version 4 File size : 16.3 GiB Duration : 1 h 47 min Overall bit rate : 21.8 Mb/s Frame rate : 23.976 FPS Movie name : Артур, ты король / Arthur the King (2024) WEB-DL 2160p. SDR Encoded date : 2024-05-01 11:40:27 UTC Writing application : mkvmerge v83.0 ('Circle Of Friends') 64-bit Writing library : libebml v1.4.5 + libmatroska v1.7.1 Video ID : 1 Format : HEVC Format/Info : High Efficiency Video Coding Format profile : Main 10@L5@High Codec ID : V_MPEGH/ISO/HEVC Duration : 1 h 47 min Bit rate : 20.2 Mb/s Width : 3 832 pixels Height : 1 592 pixels Display aspect ratio : 2.40:1 Frame rate mode : Constant Frame rate : 23.976 FPS Color space : YUV Chroma subsampling : 4:2:0 Bit depth : 10 bits Bits/(Pixel*Frame) : 0.138 Stream size : 15.1 GiB (92%) Title : Arthur the King (2024) WEB-DL 2160p. SDR Language : English Default : Yes Forced : No Color range : Limited Color primaries : BT.709 Transfer characteristics : BT.709 Matrix coefficients : BT.709 Audio #1 ID : 2 Format : AC-3 Format/Info : Audio Coding 3 Commercial name : Dolby Digital Codec ID : A_AC3 Duration : 1 h 47 min Bit rate mode : Constant Bit rate : 448 kb/s Channel(s) : 6 channels Channel layout : L R C LFE Ls Rs Sampling rate : 48.0 kHz Frame rate : 31.250 FPS (1536 SPF) Compression mode : Lossy Stream size : 343 MiB (2%) Title : Дубляж (Мосфильм-Мастер) Language : Russian Service kind : Complete Main Default : Yes Forced : No AC3_metadata cmixlev : -3.0 dB surmixlev : -3 dB Audio #2 ID : 3 Format : AC-3 Format/Info : Audio Coding 3 Commercial name : Dolby Digital Codec ID : A_AC3 Duration : 1 h 47 min Bit rate mode : Constant Bit rate : 448 kb/s Channel(s) : 6 channels Channel layout : L R C LFE Ls Rs Sampling rate : 48.0 kHz Frame rate : 31.250 FPS (1536 SPF) Compression mode : Lossy Stream size : 343 MiB (2%) Title : MVO (Soundmastersr) Language : Russian Service kind : Complete Main Default : No Forced : No AC3_metadata cmixlev : -4.5 dB surmixlev : -6 dB Audio #3 ID : 4 Format : E-AC-3 JOC Format/Info : Enhanced AC-3 with Joint Object Coding Commercial name : Dolby Digital Plus with Dolby Atmos Codec ID : A_EAC3 Duration : 1 h 47 min Bit rate mode : Constant Bit rate : 768 kb/s Channel(s) : 6 channels Channel layout : L R C LFE Ls Rs Sampling rate : 48.0 kHz Frame rate : 31.250 FPS (1536 SPF) Compression mode : Lossy Stream size : 588 MiB (4%) Title : Original Language : English Service kind : Complete Main Default : No Forced : No Complexity index : 16 Number of dynamic objects : 15 Bed channel count : 1 channel Bed channel configuration : LFE Text #1 ID : 5 Format : UTF-8 Codec ID : S_TEXT/UTF8 Codec ID/Info : UTF-8 Plain Text Duration : 1 h 36 min Bit rate : 4 b/s Frame rate : 0.008 FPS Count of elements : 46 Stream size : 2.92 KiB (0%) Title : Форсированные Language : Russian Default : Yes Forced : No Text #2 ID : 6 Format : UTF-8 Codec ID : S_TEXT/UTF8 Codec ID/Info : UTF-8 Plain Text Duration : 1 h 40 min Bit rate : 75 b/s Frame rate : 0.324 FPS Count of elements : 1952 Stream size : 55.8 KiB (0%) Title : Full Language : English Default : No Forced : No Text #3 ID : 7 Format : UTF-8 Codec ID : S_TEXT/UTF8 Codec ID/Info : UTF-8 Plain Text Duration : 1 h 45 min Bit rate : 87 b/s Frame rate : 0.356 FPS Count of elements : 2246 Stream size : 67.3 KiB (0%) Title : SDH Language : English Default : No Forced : No

Всего файлов в раздаче: 1 
Arthur the King (2024) WEB-DL 2160p. SDR.mkv16.32 GB

Похожие раздачи по запросу - Артур
2024-05-06 magnet Артур, ты король / Arthur the King (2024) WEB-DLRip-AVC от ExKinoRay | D | Мосфильм-Мастер 1.45 GB ↑ 0 ↓ 1
2024-05-02 magnet Артур, ты король / Arthur the King (2024) WEB-DLRip от ExKinoRay | D 747.13 MB ↑ 0 ↓ 0
2024-05-01 magnet Артур, ты король / Arthur the King (2024) WEB-DL 1080p от New-Team | D, L 6.39 GB ↑ 0 ↓ 0
2024-05-01 magnet Артур, ты король / Arthur the King (2024) WEB-DL 720p от ExKinoRay | D 3.18 GB ↑ 0 ↓ 0
2024-05-01 magnet Артур, ты король / Arthur the King (2024) WEB-DLRip от New-Team | D | Локализованная версия 1.47 GB ↑ 0 ↓ 0
2024-05-01 magnet Артур, ты король / Arthur the King (2024) WEB-DL 1080p от селезень | D | Мосфильм-Мастер | Локализованная версия 5.02 GB ↑ 0 ↓ 1
2024-05-01 magnet Артур, ты король / Arthur the King (2024) WEB-DLRip-AVC от DoMiNo & селезень | D | Мосфильм-Мастер | Локализованная версия 1.95 GB ↑ 1 ↓ 0

Кто качает (только для создателя раздачи и модераторов): Локальные пиры отсутствуют

Комментарии


Зарегистрируйтесь чтобы добавить комментарий
Торрент клиент
byTorrent - программа для загрузки торрент-файлов.

Скачать byTorrent.exe (1,5 МБ)

Скачать byTorrent.zip (0,6 МБ)

Поддержи torrent.by
российских рублей
(300 российских рублей это 4$)

Обратная связь rss

End game ©