↑↓torrent.by
Поиск
Логин:  Регистрация
Пароль:

Враг государства / Enemy of the State (1998) BDRip 720p от New-Team | D, P, A

download Скачать торрент-файл   magnet Магнитная ссылка Размер: 3.65 GB Добавлен: 2024-05-02 17:00
Пиры будут получены из сети DHT
Последний сидер был замечен 2024-05-02 17:00
«Государство знает всё о каждом. И может изменить судьбу любого из нас» Страна: США Производство: Don Simpson/Jerry Bruckheimer Films, Jerry Bruckheimer Films, No Such Productions, Scott Free Productions, Touchstone Pictures Жанр: боевик, триллер, криминал, детектив Год выпуска: 1998 Продолжительность: 02:12:11 Перевод: Профессиональный (полное дублирование), Профессиональный (многоголосый, закадровый), Aвторский (одноголосый закадровый) А. Гаврилов, Юрий Живов Оригинальная аудиодорожка: английский Cубтитры: русский Режиссер: Тони Скотт / Tony Scott В ролях: Уилл Смит /Will Smith/, Джин Хэкмен /Gene Hackman/, Бэрри Пеппер /Barry Pepper/, Джон Войт /Jon Voight/, Реджина Кинг /Regina King/, Иэн Харт /Ian Hart/, Лиза Боне /Lisa Bonet/, Джейк Бьюзи /Jake Busey/, Скотт Каан /Scott Caan/, Джейми Кеннеди /Jamie Kennedy/, Джейсон Ли /Jason Lee/, Гэбриел Бирн /Gabriel Byrne/, Стюарт Уилсон /Stuart Wilson/, Джек Блэк /Jack Black/, Лаура Кайот /Laura Cayouette/, Лорен Дин /Loren Dean/, Дэн Батлер /Dan Butler/, Бодхи Элфмэн /Bodhi Elfman/, Джейкоб Чэмберс /Jacob Chambers/, Александра Белахойтис /Alexandra Balahoutis/... Подробнее об актерах Роли дублировали: Валерий Кухарешин, Вадим Яковлев, Александр Демьяненко, Евгения Игумнова, Николай Буров... Описание: Каждое мгновение своей жизни человек находится на виду, даже когда он уверен, что его никто не видит. В руки преуспевающего адвоката Роберта Дина попала страшная улика, разоблачающая высокопоставленного чиновника. Но секретная служба узнала об этом раньше Роберта и немедленно приняла меры. В ход пошли самые новейшие технологии: в современном мире не нужно быть магом, чтобы изменить человеческую судьбу, — достаточно просто подойти к компьютеру. За считанные дни из законопослушного гражданина Дин превратился в опасного преступника, на которого была объявлена настоящая охота. Когда адвокат найдет союзников и передаст им таинственную улику, полетят многие головы… если до этого он не лишится своей… Исходник: BDRemux 1080p Тип релиза: BDRip 720p Контейнер: MKV Видео: 1280x540 (2,39:1), 23,976 кадров/сек, x264 core 164 r3182 ~ 2 995 кбит/сек, 0.181 бит/пиксель Аудио: 48 кГц, Dolby Digital AC3 2.0, 192 кбит/сек DUB Аудио: 48 кГц, Dolby Digital AC3 2.0, 192 кбит/сек MVO Аудио: 48 кГц, Dolby Digital AC3 2.0, 192 кбит/сек А. Гаврилов Аудио: 48 кГц, Dolby Digital AC3 2.0, 192 кбит/сек Юрий Живов Аудио: 48 кГц, Dolby Digital AC3 2.0, 192 кбит/се Английский Субтитры: SoftSub (srt) Оригинальная навигация по главам: есть Раздача от:
[+] MediaInfo Общее Полное имя : Враг государства.1998.BDRip720p__by_AVP_Studio.mkv Формат : Matroska Версия формата : Version 4 Размер файла : 3,65 Гбайт Продолжительность : 2 ч. 12 мин. Общий битрейт : 3 956 Кбит/сек Частота кадров : 23,976 кадра/сек Дата кодирования : 2024-05-02 06:58:14 UTC Программа кодирования : mkvmerge v83.0 ('Circle Of Friends') 64-bit Библиотека кодирования : libebml v1.4.5 + libmatroska v1.7.1 Видео Идентификатор : 1 Формат : AVC Формат/Информация : Advanced Video Codec Профиль формата : High@L4.1 Настройки формата : CABAC / 8 Ref Frames Параметр CABAC формата : Да Параметр RefFrames формата : 8 кадров Идентификатор кодека : V_MPEG4/ISO/AVC Продолжительность : 2 ч. 12 мин. Битрейт : 2 995 Кбит/сек Ширина : 1 280 пикселей Высота : 540 пикселей Соотношение сторон дисплея : 2,39:1 Режим частоты кадров : Постоянный Частота кадров : 23,976 (24000/1001) кадра/сек Цветовое пространство : YUV Цветовая субдискретизация : 4:2:0 Битовая глубина : 8 бит Тип развёртки : Прогрессивная Бит/(Пиксели*Кадры) : 0.181 Размер потока : 2,76 Гбайт (76%) Заголовок : Исходник BDRemux Библиотека кодирования : x264 core 164 r3182 be4f020 Параметры библиотеки кодирования : cabac=1 / ref=8 / deblock=1:-3:-3 / analyse=0x3:0x133 / me=umh / subme=10 / psy=1 / psy_rd=1.00:0.00 / mixed_ref=1 / me_range=32 / chroma_me=1 / trellis=2 / 8x8dct=1 / cqm=0 / deadzone=21,11 / fast_pskip=1 / chroma_qp_offset=-2 / threads=6 / lookahead_threads=1 / sliced_threads=0 / nr=0 / decimate=0 / interlaced=0 / bluray_compat=0 / constrained_intra=0 / bframes=8 / b_pyramid=2 / b_adapt=2 / b_bias=0 / direct=3 / weightb=1 / open_gop=0 / weightp=2 / keyint=240 / keyint_min=24 / scenecut=40 / intra_refresh=0 / rc=2pass / mbtree=0 / bitrate=2995 / ratetol=1.0 / qcomp=0.60 / qpmin=0 / qpmax=69 / qpstep=4 / cplxblur=20.0 / qblur=0.5 / ip_ratio=1.40 / pb_ratio=1.30 / aq=1:1.00 Язык : Английский По умолчанию : Да Принудительно : Нет Аудио #1 Идентификатор : 2 Формат : AC-3 Формат/Информация : Audio Coding 3 Коммерческое название : Dolby Digital Идентификатор кодека : A_AC3 Продолжительность : 2 ч. 12 мин. Вид битрейта : Постоянный Битрейт : 192 Кбит/сек Канал(-ы) : 2 канала Расположение каналов : L R Частота дискретизации : 48,0 КГц Частота кадров : 31,250 кадров/сек (1536 SPF) Метод сжатия : С потерями Размер потока : 181 Мбайт (5%) Заголовок : Профессиональный (дублированный) Язык : Русский По умолчанию : Да Принудительно : Нет Аудио #2 Идентификатор : 3 Формат : AC-3 Формат/Информация : Audio Coding 3 Коммерческое название : Dolby Digital Идентификатор кодека : A_AC3 Продолжительность : 2 ч. 12 мин. Вид битрейта : Постоянный Битрейт : 192 Кбит/сек Канал(-ы) : 2 канала Расположение каналов : L R Частота дискретизации : 48,0 КГц Частота кадров : 31,250 кадров/сек (1536 SPF) Метод сжатия : С потерями Размер потока : 182 Мбайт (5%) Заголовок : Профессиональный (многоголосый закадровый) ОРТ Язык : Русский По умолчанию : Да Принудительно : Нет Аудио #3 Идентификатор : 4 Формат : AC-3 Формат/Информация : Audio Coding 3 Коммерческое название : Dolby Digital Идентификатор кодека : A_AC3 Продолжительность : 2 ч. 12 мин. Вид битрейта : Постоянный Битрейт : 192 Кбит/сек Канал(-ы) : 2 канала Расположение каналов : L R Частота дискретизации : 48,0 КГц Частота кадров : 31,250 кадров/сек (1536 SPF) Метод сжатия : С потерями Размер потока : 182 Мбайт (5%) Заголовок : Авторский А. Гаврилов Язык : Русский По умолчанию : Да Принудительно : Нет Аудио #4 Идентификатор : 5 Формат : AC-3 Формат/Информация : Audio Coding 3 Коммерческое название : Dolby Digital Идентификатор кодека : A_AC3 Продолжительность : 2 ч. 12 мин. Вид битрейта : Постоянный Битрейт : 192 Кбит/сек Канал(-ы) : 2 канала Расположение каналов : L R Частота дискретизации : 48,0 КГц Частота кадров : 31,250 кадров/сек (1536 SPF) Метод сжатия : С потерями Размер потока : 182 Мбайт (5%) Заголовок : Авторский Ю. Живов Язык : Русский По умолчанию : Да Принудительно : Нет Аудио #5 Идентификатор : 6 Формат : AC-3 Формат/Информация : Audio Coding 3 Коммерческое название : Dolby Digital Идентификатор кодека : A_AC3 Продолжительность : 2 ч. 12 мин. Вид битрейта : Постоянный Битрейт : 192 Кбит/сек Канал(-ы) : 2 канала Расположение каналов : L R Частота дискретизации : 48,0 КГц Частота кадров : 31,250 кадров/сек (1536 SPF) Метод сжатия : С потерями Размер потока : 182 Мбайт (5%) Заголовок : Оригинал Язык : Английский По умолчанию : Да Принудительно : Нет Текст Идентификатор : 7 Формат : UTF-8 Идентификатор кодека : S_TEXT/UTF8 Идентификатор кодека/Информация : UTF-8 Plain Text Продолжительность : 2 ч. 5 мин. Битрейт : 113 бит/сек Частота кадров : 0,215 кадр/сек Число элементов : 1625 Размер потока : 105 КиБ (0%) Заголовок : SRT Язык : Русский По умолчанию : Нет Принудительно : Нет Меню 00:00:00.000 : Program Start 00:03:04.456 : Eliminating the Opposition 00:06:06.514 : Opening Credits 00:10:45.891 : Taking On the Mob 00:15:57.835 : A Visit With Pintero 00:21:28.787 : A Problem at the Lake 00:26:23.873 : Zavitz's Tape 00:32:01.711 : Rabbit On the Run 00:37:03.583 : Dean's People 00:42:14.823 : Unexpected Visitors 00:47:29.721 : Getting Into Dean's Life 00:52:33.150 : Dean's Life in Shambles 00:57:51.176 : Conversation With Rachel 01:03:34.227 : A Rough Cab Ride 01:08:43.399 : Brill 01:13:52.553 : Moving Target 01:19:07.451 : Tunnel Vision 01:24:09.836 : The Jar 01:29:47.673 : Time Bomb 01:34:55.272 : Edward Lyle 01:40:06.000 : Turning the Tables 01:45:24.026 : A Call From Brill 01:50:32.667 : "Let the Games Begin" 01:56:37.615 : Getting the Tape Back 02:01:49.385 : Dean's Plan 02:07:02.666 : Wrap-Up 02:12:09.796 : End Credits
[+] Скриншоты

Всего файлов в раздаче: 1 
Враг государства.1998.BDRip720p_[New-team]_by_AVP_Studio.mkv3.65 GB

Похожие раздачи по запросу - Враг
2024-05-15 magnet По законам военного времени. Враг за спиной [S07] (2024) WEB-DLRip от Generalfilm | КПК 1.52 GB ↑ 0 ↓ 0
2024-05-14 magnet По законам военного времени. Враг за спиной [S07] (2024) WEB-DLRip-AVC от GeneralFilm | КПК 1.81 GB ↑ 0 ↓ 0
2024-05-10 magnet По законам военного времени. Враг за спиной [S07] (2024) WEB-DLRip от Files-x 5.07 GB ↑ 0 ↓ 0
2024-05-09 magnet По законам военного времени: Враг за спиной [S07] (2024) WEB-DL 720p от ExKinoRay 8.04 GB ↑ 0 ↓ 0
2024-05-09 magnet По законам военного времени. Враг за спиной [S07] (2024) WEB-DLRip-AVC от Files-x 5.11 GB ↑ 0 ↓ 0
2024-05-09 magnet По законам военного времени: Враг за спиной [S07] (2024) WEB-DLRip-AVC от ExKinoRay 4.54 GB ↑ 0 ↓ 0
2024-05-09 magnet По законам военного времени: Враг за спиной [S07] (2024) WEB-DL 1080p от ExKinoRay 15.31 GB ↑ 0 ↓ 0

Кто качает (только для создателя раздачи и модераторов): Локальные пиры отсутствуют

Комментарии


Зарегистрируйтесь чтобы добавить комментарий
Торрент клиент
byTorrent - программа для загрузки торрент-файлов.

Скачать byTorrent.exe (1,5 МБ)

Скачать byTorrent.zip (0,6 МБ)

Поддержи torrent.by
российских рублей
(300 российских рублей это 4$)

Обратная связь rss

End game ©