↑↓torrent.by
Поиск
Логин:  Регистрация
Пароль:

Пушистая братва / Darkdog Lockdown (2023) WEB-DLRip-AVC от DoMiNo & селезень | D

download Скачать торрент-файл   magnet Магнитная ссылка Размер: 1.24 GB Добавлен: 2024-05-02 17:00
Пиры будут получены из сети DHT
Последний сидер был замечен 2024-05-03 23:30
Информация о фильме Название: Пушистая братва Оригинальное название: Darkdog Lockdown Год выпуска: 2023 Жанр: Комедия Режиссер: Тум Кронкан В ролях: Рунглаван Тхонахонгса, Джанет Кхиев, Джои Чернйим, Панчавит Киттитарасуп, Чутирада Юнтхит, Оппа Тхучи. Аюмма Намми О фильме: В небольшой деревне на окраине города, где живут самые милые и умные собаки в мире, царит спокойствие и гармония. Но все меняется, когда пушистые друзья случайно натыкаются на группу таинственных злодеев, которые что-то замышляют. Не задумываясь, дружелюбные псы решают помешать коварным планам. Они объединяются с жителями деревни, которые им во всем помогают. В ходе своего приключения они учатся работать в команде, преодолевать свои страхи и становятся настоящими героями. Выпущено: Таиланд Продолжительность: 01:25:26 Перевод: Дублированный | Официальный Файл Формат: Matroska Качество: WEB-DLRip-AVC Видео: 1024x426 at 24.000 fps, x264@L4.1, ~1691 kbps Аудио: AC3, 6 ch, ~384 kbps - | Русский | Субтитры: отсутствуют ***Рип от: -=DoMiNo=-
[+] M/IGeneral Unique ID : 79427808288395102325494969725866913322 (0x3BC13D4BF00B1C00260FFD667D92AE2A) Complete name : I:Darkdog.Lockdown.2023.DUB.WEB-DLRip.x264.seleZen.mkv Format : Matroska Format version : Version 4 File size : 1.24 GiB Duration : 1 h 25 min Overall bit rate : 2 077 kb/s Frame rate : 24.000 FPS Movie name : Darkdog.Lockdown.2023.DUB.WEB-DLRip.x264.seleZen Encoded date : 2024-05-02 06:40:06 UTC Writing application : mkvmerge v84.0 ('Sleeper') 64-bit Writing library : libebml v1.4.5 + libmatroska v1.7.1 Cover : Yes Attachments : cover.jpg / small_cover.jpg Video ID : 1 Format : AVC Format/Info : Advanced Video Codec Format profile : High@L4.1 Format settings : CABAC / 10 Ref Frames Format settings, CABAC : Yes Format settings, Reference : 10 frames Codec ID : V_MPEG4/ISO/AVC Duration : 1 h 25 min Bit rate : 1 691 kb/s Width : 1 024 pixels Height : 426 pixels Display aspect ratio : 2.40:1 Frame rate mode : Constant Frame rate : 24.000 FPS Color space : YUV Chroma subsampling : 4:2:0 Bit depth : 8 bits Scan type : Progressive Bits/(Pixel*Frame) : 0.162 Stream size : 1.01 GiB (81%) Title : -=DoMiNo=- Writing library : x264 core 164 r3190 -DoMiNo Encoding settings : cabac=1 / ref=10 / deblock=1:0:0 / analyse=0x3:0x133 / me=umh / subme=10 / psy=1 / psy_rd=1.00:0.00 / mixed_ref=1 / me_range=32 / chroma_me=1 / trellis=2 / 8x8dct=1 / cqm=0 / deadzone=21,11 / fast_pskip=0 / chroma_qp_offset=-2 / threads=13 / lookahead_threads=3 / sliced_threads=0 / nr=0 / decimate=1 / interlaced=0 / bluray_compat=0 / constrained_intra=0 / bframes=12 / b_pyramid=2 / b_adapt=2 / b_bias=0 / direct=3 / weightb=1 / open_gop=0 / weightp=2 / keyint=240 / keyint_min=24 / scenecut=40 / intra_refresh=0 / rc_lookahead=60 / rc=crf / mbtree=0 / crf=18.5 / qcomp=0.60 / qpmin=0 / qpmax=69 / qpstep=4 / vbv_maxrate=50000 / vbv_bufsize=62500 / crf_max=0.0 / nal_hrd=none / filler=0 / ip_ratio=1.40 / pb_ratio=1.30 / aq=1:1.00 Language : English Default : Yes Forced : No Color range : Limited Color primaries : BT.709 Transfer characteristics : BT.709 Matrix coefficients : BT.709 Audio ID : 2 Format : AC-3 Format/Info : Audio Coding 3 Commercial name : Dolby Digital Codec ID : A_AC3 Duration : 1 h 25 min Bit rate mode : Constant Bit rate : 384 kb/s Channel(s) : 6 channels Channel layout : L R C LFE Ls Rs Sampling rate : 48.0 kHz Frame rate : 31.250 FPS (1536 SPF) Compression mode : Lossy Stream size : 235 MiB (18%) Title : Dub Language : Russian Service kind : Complete Main Default : Yes Forced : No AC3_metadata cmixlev : -3.0 dB surmixlev : -3 dB Menu 00:00:00.000 : en:Chapter 01 00:05:50.000 : en:Chapter 02 00:11:40.000 : en:Chapter 03 00:17:30.000 : en:Chapter 04 00:23:20.000 : en:Chapter 05 00:29:10.000 : en:Chapter 06 00:35:00.000 : en:Chapter 07 00:40:50.000 : en:Chapter 08 00:46:40.000 : en:Chapter 09 00:52:30.000 : en:Chapter 10 00:58:20.000 : en:Chapter 11 01:04:10.000 : en:Chapter 12 01:10:00.000 : en:Chapter 13 01:15:50.000 : en:Chapter 14 01:21:40.000 : en:Chapter 15
Релиз: Присоединяйся к: Кликай на баннеры.

Всего файлов в раздаче: 1 
Darkdog.Lockdown.2023.DUB.WEB-DLRip.x264.seleZen.mkv1.24 GB

Похожие раздачи по запросу - Пушистая
2024-05-02 magnet Пушистая братва / Darkdog Lockdown (2023) WEB-DLRip от MegaPeer | D 1.46 GB ↑ 0 ↓ 0
2024-05-02 magnet Пушистая братва / Darkdog Lockdown (2023) WEB-DL 1080p | D 3.35 GB ↑ 0 ↓ 0

Комментарии


Зарегистрируйтесь чтобы добавить комментарий
Торрент клиент
byTorrent - программа для загрузки торрент-файлов.

Скачать byTorrent.exe (1,5 МБ)

Скачать byTorrent.zip (0,6 МБ)

Поддержи torrent.by
российских рублей
(300 российских рублей это 4$)

Обратная связь rss

End game ©