↑↓torrent.by
Поиск
Логин:  Регистрация
Пароль:

Враг государства / Enemy of the State (1998) BDRip от New-Team | D

download Скачать торрент-файл   magnet Магнитная ссылка Размер: 1.09 GB Добавлен: 2024-05-02 17:00
Пиры будут получены из сети DHT
Последний сидер был замечен 2024-05-07 14:14
«Государство знает всё о каждом. И может изменить судьбу любого из нас» Страна: США Производство: Don Simpson/Jerry Bruckheimer Films, Jerry Bruckheimer Films, No Such Productions, Scott Free Productions, Touchstone Pictures Жанр: боевик, триллер, криминал, детектив Год выпуска: 1998 Продолжительность: 02:12:11 Перевод: Профессиональный (полное дублирование) Оригинальная аудиодорожка: нет Cубтитры: нет Режиссер: Тони Скотт / Tony Scott В ролях: Уилл Смит /Will Smith/, Джин Хэкмен /Gene Hackman/, Бэрри Пеппер /Barry Pepper/, Джон Войт /Jon Voight/, Реджина Кинг /Regina King/, Иэн Харт /Ian Hart/, Лиза Боне /Lisa Bonet/, Джейк Бьюзи /Jake Busey/, Скотт Каан /Scott Caan/, Джейми Кеннеди /Jamie Kennedy/, Джейсон Ли /Jason Lee/, Гэбриел Бирн /Gabriel Byrne/, Стюарт Уилсон /Stuart Wilson/, Джек Блэк /Jack Black/, Лаура Кайот /Laura Cayouette/, Лорен Дин /Loren Dean/, Дэн Батлер /Dan Butler/, Бодхи Элфмэн /Bodhi Elfman/, Джейкоб Чэмберс /Jacob Chambers/, Александра Белахойтис /Alexandra Balahoutis/... Подробнее об актерах Роли дублировали: Валерий Кухарешин, Вадим Яковлев, Александр Демьяненко, Евгения Игумнова, Николай Буров... Описание: Каждое мгновение своей жизни человек находится на виду, даже когда он уверен, что его никто не видит. В руки преуспевающего адвоката Роберта Дина попала страшная улика, разоблачающая высокопоставленного чиновника. Но секретная служба узнала об этом раньше Роберта и немедленно приняла меры. В ход пошли самые новейшие технологии: в современном мире не нужно быть магом, чтобы изменить человеческую судьбу, — достаточно просто подойти к компьютеру. За считанные дни из законопослушного гражданина Дин превратился в опасного преступника, на которого была объявлена настоящая охота. Когда адвокат найдет союзников и передаст им таинственную улику, полетят многие головы… если до этого он не лишится своей… Исходник: BDRemux 1080p Тип релиза: BDRip Контейнер: AVI Видео: 720x304 (2.35:1), 23,976 кадра/сек, XviD 73 ~ 979 кбит/се, 0.186 бит/пиксель Аудио: 48 kHz, Dolby Digital AC3 2.0, 192 кбит/сек DUB Раздача от:
[+] MediaInfo Общее Полное имя : Враг государства.1998.BDRip__by_AVP_Studio.avi Формат : AVI Формат/Информация : Audio Video Interleave Настройки формата : BitmapInfoHeader / WaveFormatEx Размер файла : 1,09 Гбайт Продолжительность : 2 ч. 12 мин. Общий битрейт : 1 180 Кбит/сек Частота кадров : 23,976 кадра/сек Программа кодирования : VirtualDubMod 1.5.10.3 | www.virtualdub-fr.org || (build 2550/release) Библиотека кодирования : VirtualDubMod build 2550/release Видео Идентификатор : 0 Формат : MPEG-4 Visual Профиль формата : Advanced Simple@L5 Настройки формата : BVOP1 / Custom Matrix Параметр BVOP формата : 1 Параметр QPel формата : Нет Параметр GMC формата : Без точки перехода Параметр Matrix формата : Выборочная Идентификатор кодека : XVID Идентификатор кодека/Подсказка : XviD Продолжительность : 2 ч. 12 мин. Битрейт : 979 Кбит/сек Ширина : 720 пикселей Высота : 304 пикселя Соотношение сторон дисплея : 2,35:1 Частота кадров : 23,976 (24000/1001) кадра/сек Цветовое пространство : YUV Цветовая субдискретизация : 4:2:0 Битовая глубина : 8 бит Тип развёртки : Прогрессивная Метод сжатия : С потерями Бит/(Пиксели*Кадры) : 0.186 Размер потока : 925 Мбайт (83%) Библиотека кодирования : XviD 73 Аудио Идентификатор : 1 Формат : AC-3 Формат/Информация : Audio Coding 3 Коммерческое название : Dolby Digital Идентификатор кодека : 2000 Продолжительность : 2 ч. 12 мин. Вид битрейта : Постоянный Битрейт : 192 Кбит/сек Канал(-ы) : 2 канала Расположение каналов : L R Частота дискретизации : 48,0 КГц Частота кадров : 31,250 кадров/сек (1536 SPF) Метод сжатия : С потерями Размер потока : 181 Мбайт (16%) Выравнивание : Разделение по промежуткам Чередование, продолжительность : 42 мс. (1,00 видеокадр) Чередование, продолжительность пред.загр : 500 мс
[+] Скриншоты

Всего файлов в раздаче: 1 
Враг государства.1998.BDRip_[New-team]_by_AVP_Studio.avi1.09 GB

Похожие раздачи по запросу - Враг
2024-05-15 magnet По законам военного времени. Враг за спиной [S07] (2024) WEB-DLRip от Generalfilm | КПК 1.52 GB ↑ 0 ↓ 0
2024-05-14 magnet По законам военного времени. Враг за спиной [S07] (2024) WEB-DLRip-AVC от GeneralFilm | КПК 1.81 GB ↑ 0 ↓ 0
2024-05-10 magnet По законам военного времени. Враг за спиной [S07] (2024) WEB-DLRip от Files-x 5.07 GB ↑ 1 ↓ 0
2024-05-09 magnet По законам военного времени: Враг за спиной [S07] (2024) WEB-DL 720p от ExKinoRay 8.04 GB ↑ 1 ↓ 0
2024-05-09 magnet По законам военного времени. Враг за спиной [S07] (2024) WEB-DLRip-AVC от Files-x 5.11 GB ↑ 0 ↓ 0
2024-05-09 magnet По законам военного времени: Враг за спиной [S07] (2024) WEB-DLRip-AVC от ExKinoRay 4.54 GB ↑ 0 ↓ 0
2024-05-09 magnet По законам военного времени: Враг за спиной [S07] (2024) WEB-DL 1080p от ExKinoRay 15.31 GB ↑ 0 ↓ 0

Комментарии


Зарегистрируйтесь чтобы добавить комментарий
Торрент клиент
byTorrent - программа для загрузки торрент-файлов.

Скачать byTorrent.exe (1,5 МБ)

Скачать byTorrent.zip (0,6 МБ)

Поддержи torrent.by
российских рублей
(300 российских рублей это 4$)

Обратная связь rss

End game ©