↑↓torrent.by
Поиск
Логин:  Регистрация
Пароль:

Ложный приговор / Угрызения совести / Duk sit dai jong / A Guilty Conscience (2023) BDRip от New-Team | D

download Скачать торрент-файл   magnet Магнитная ссылка Размер: 2.18 GB Добавлен: 2024-05-02 17:00
Пиры будут получены из сети DHT
Последний сидер был замечен 2024-05-21 22:36
Ложный приговор / Угрызения совести / Duk sit dai jong / A Guilty Conscience Год выпуска: 2023 Выпущено: Гонконг, EDKO Film Ltd., Film Development Fund of Hong Kong, Irresistible Films Жанр: Драма Режиссер: Нг Вай-Лунь / Ng Wai-Lun В ролях: Дайо Вон, Луиз Вон, Хо Кай-Ва, Цзэ Кван-Хо, Адам Пак, Винсент Кок, Боуи Лам, Шелдон Ло, Фиш Лью О фильме: Адвокат Адриан Лам безответственно подошел к делу о громком убийстве, в результате невиновная женщина была приговорена к 17 годам тюрьмы. Чтобы исправить свою ужасную ошибку и очистить имя жертвы, адвокат с коллегами пытаются разобраться в запутанном процессе, но против них выступает очень богатая и влиятельная семья. Продолжительность: 02:13:29 Перевод: Дублированный Субтитры: отсутствуют Раздача от: Автор релиза: JNS82. Формат: AVI Качество: BDRip | A.Guilty.Conscience.2023.Blu-ray.Remux.1080p.TrueHD5.1-HDS Видео: 720x304 (2.35:1), 24.000 fps, XviD MPEG-4 ~ 1945 kbps avg, 0.370 bit/pixel, build 73 Аудио: 48 kHz, AC3 Dolby Digital, 3/2 (L,C,R,l,r) + LFE ch, ~ 384 kbps | RUS |
[+] MediaInfoОбщее Полное имя : D:TorrentsA.Guilty.Conscience.2023.BDRip_от New-Team_by_JNS82.avi Формат : AVI Формат/Информация : Audio Video Interleave Профиль формата : OpenDML Размер файла : 2,18 Гбайт Продолжительность : 2 ч. 13 м. Общий поток : 2 341 Кбит/сек Программа кодирования : VirtualDubMod 1.5.10.2 (build 2540/release) Библиотека кодирования : VirtualDubMod build 2540/release Видео Идентификатор : 0 Формат : MPEG-4 Visual Профиль формата : Advanced Simple@L5 Настройки формата : BVOP1 / Custom Matrix Параметр BVOP формата : 1 Параметр QPel формата : Нет Параметр GMC формата : Без точки перехода Параметр матрицы формата : Выборочная Идентификатор кодека : XVID Идентификатор кодека/Подсказка : XviD Продолжительность : 2 ч. 13 м. Битрейт : 1 945 Кбит/сек Ширина : 720 пикселей Высота : 304 пикселя Соотношение сторон : 2,35:1 Частота кадров : 24,000 кадра/сек Цветовое пространство : YUV Субдискретизация насыщенности : 4:2:0 Битовая глубина : 8 бит Тип развёртки : Прогрессивная Метод сжатия : С потерями Бит/(Пиксели*Кадры) : 0.370 Размер потока : 1,81 Гбайт (83%) Библиотека кодирования : XviD 73 Аудио Идентификатор : 1 Формат : AC-3 Формат/Информация : Audio Coding 3 Коммерческое название : Dolby Digital Идентификатор кодека : 2000 Продолжительность : 2 ч. 13 м. Вид битрейта : Постоянный Битрейт : 384 Кбит/сек Каналы : 6 каналов Channel layout : L R C LFE Ls Rs Частота : 48,0 КГц Частота кадров : 31,250 кадров/сек (1536 SPF) Метод сжатия : С потерями Размер потока : 366 Мбайт (16%) Выравнивание : Разделение по промежуткам Продолжительность промежутка : 42 мс. (1,00 видеокадр) Время предзагрузки промежутка : 500 мс. Service kind : Complete Main

Всего файлов в раздаче: 1 
A.Guilty.Conscience.2023.BDRip_от New-Team_by_JNS82.avi2.18 GB

Похожие раздачи по запросу - Ложный
2024-05-02 magnet Ложный приговор / Угрызения совести / Duk sit dai jong / A Guilty Conscience (2023) WEB-DL 1080p | D 5.25 GB ↑ 0 ↓ 0

Комментарии


Зарегистрируйтесь чтобы добавить комментарий
Торрент клиент
byTorrent - программа для загрузки торрент-файлов.

Скачать byTorrent.exe (1,5 МБ)

Скачать byTorrent.zip (0,6 МБ)

Поддержи torrent.by
российских рублей
(300 российских рублей это 4$)

Обратная связь rss

End game ©