↑↓torrent.by
Поиск
Логин:  Регистрация
Пароль:

Артур, ты король / Arthur the King (2024) WEB-DLRip от ExKinoRay | D

download Скачать торрент-файл   magnet Магнитная ссылка Размер: 747.13 MB Добавлен: 2024-05-02 17:00
Пиры будут получены из сети DHT
Последний сидер был замечен вчера в 13:24
Информация о фильме Название: Артур, ты король Оригинальное название: Arthur the King Год выхода: 2024 Жанр: драма, приключения Режиссер: Саймон Селлан Джонс В ролях: Марк Уолберг, Симу Лю, Джульет Райлэнс, Натали Эммануэль, Али Сулиман, Беар Гриллс, Пол Гилфойл, Роб Коллинз, Карлтон Бёрд, Сиси Валентина О фильме: Это было последнее соревнование капитана по приключенческим гонкам Майкла Линднорда, он был полон решимости ничему не позволить встать у него на пути. Собрав первоклассную команду, он не мог и представить, что в 700-километровом забеге у них появится неожиданный попутчик — пес по кличке Артур, встреча с которым изменит не только исход гонки, но и их жизнь. Страна: США Студия: Lionsgate, Tooley Productions Продолжительность: 01:47:02 Перевод: Профессиональный дублированный - Файл Кодек: XviD Качество: WEB-DLRip Видео: 688x288 (2.39:1), 23.976 fps, XviD build 67 ~835 kbps avg, 0.17 bit/pixel Звук: 48 kHz, MP3, 2 ch, 128 kbps avg Субтитры: Русские (forced) - не отключаемые
[+] MediaInfoGeneral Complete name : D:Arthur.the.King.2024.AMZN.WEB-DLRip.ExKinoRay.avi Format : AVI Format/Info : Audio Video Interleave Format settings : BitmapInfoHeader / WaveFormatEx File size : 747 MiB Duration : 1 h 47 min Overall bit rate : 976 kb/s Frame rate : 23.976 FPS Writing application : Lavf58.29.100 Video ID : 0 Format : MPEG-4 Visual Format profile : Advanced Simple@L5 Format settings : BVOP1 / Custom Matrix Format settings, BVOP : 1 Format settings, QPel : No Format settings, GMC : No warppoints Format settings, Matrix : Custom Codec ID : XVID Codec ID/Hint : XviD Duration : 1 h 47 min Bit rate : 835 kb/s Width : 688 pixels Height : 288 pixels Display aspect ratio : 2.40:1 Frame rate : 23.976 (24000/1001) FPS Color space : YUV Chroma subsampling : 4:2:0 Bit depth : 8 bits Scan type : Progressive Compression mode : Lossy Bits/(Pixel*Frame) : 0.176 Stream size : 639 MiB (86%) Writing library : XviD 67 Audio ID : 1 Format : MPEG Audio Format version : Version 1 Format profile : Layer 3 Format settings : Joint stereo / MS Stereo Codec ID : 55 Codec ID/Hint : MP3 Duration : 1 h 47 min Bit rate mode : Constant Bit rate : 128 kb/s Channel(s) : 2 channels Sampling rate : 48.0 kHz Compression mode : Lossy Stream size : 98.0 MiB (13%) Alignment : Aligned on interleaves Interleave, duration : 24 ms (0.58 video frame) Title : DUB | Mosfilm-Master Writing library : LAME3.100UU
[+] Скриншоты
Релиз от: Рип изготовил:

Всего файлов в раздаче: 1 
Arthur.the.King.2024.AMZN.WEB-DLRip.ExKinoRay.avi747.13 MB

Похожие раздачи по запросу - Артур
Вчера magnet Артур, ты король / Arthur the King (2024) BDRip 1080p от селезень | D | Мосфильм-Мастер 8.43 GB ↑ 0 ↓ 0
Вчера magnet Артур, ты король / Arthur the King (2024) BDRip 720p от DoMiNo & селезень | D | Мосфильм-Мастер 3.62 GB ↑ 0 ↓ 1
Вчера magnet Артур, ты король / Arthur the King (2024) BDRip 1080p от MegaPeer | D 7.33 GB ↑ 0 ↓ 2
Вчера magnet Артур, ты король / Arthur the King (2024) BDRip 720p от MegaPeer | D 3.40 GB ↑ 0 ↓ 0
Вчера magnet Артур, ты король / Arthur the King (2024) BDRip от MegaPeer | D 1.46 GB ↑ 0 ↓ 2
Вчера magnet Артур, ты король / Arthur the King (2024) BDRip-AVC от New-Team | D, L 2.18 GB ↑ 1 ↓ 0
2024-05-06 magnet Артур, ты король / Arthur the King (2024) WEB-DLRip-AVC от ExKinoRay | D | Мосфильм-Мастер 1.45 GB ↑ 0 ↓ 1

Кто качает (только для создателя раздачи и модераторов): Локальные пиры отсутствуют

Комментарии


Зарегистрируйтесь чтобы добавить комментарий
Торрент клиент
byTorrent - программа для загрузки торрент-файлов.

Скачать byTorrent.exe (1,5 МБ)

Скачать byTorrent.zip (0,6 МБ)

Поддержи torrent.by
российских рублей
(300 российских рублей это 4$)

Обратная связь rss

End game ©