↑↓torrent.by
Поиск
Логин:  Регистрация
Пароль:

Битва в проливе Норян / Noryang: jukeumui bada / Noryang: Deadly Sea (2023) WEB-DL 1080p | D

download Скачать торрент-файл   magnet Магнитная ссылка Размер: 11.20 GB Раздают: 0 Качают: 3 Добавлен: 2024-05-02 17:00
Пиры будут получены из сети DHT
Последний сидер был замечен 2024-05-13 08:24
Информация о фильме Название: Битва в проливе Норян Оригинальное название: Noryang: jukeumui bada / Noryang: Deadly Sea Год выхода: 2023 Жанр: военный, биография, боевик, история Режиссер: Ким Хан-мин / Kim Han-min В ролях: Ким Юн-сок, Чон Джэ-ён, Пэк Юн-щик, Хо Джун-хо, Лим Иль-гю, Чон Ун-джон, Ли Му-сэн, Чу Сок-тхэ, Ким Джун-хи, Ан Сон-бон О фильме: История о морской битве в проливе Норян 16 декабря 1598 года, последней битвы Имджинской войны. Корейский флот из 150 кораблей под предводительством адмирала Ли Сунсина противостоит 500 судам японских агрессоров. Страна: Корея Южная Студия: Acemaker Movie Works, Big Stone Pictures, Lotte Entertainment Продолжительность: 02:32:50 Перевод: Профессиональный (дублированный) Бюджет $26 000 000 Файл Качество: WEB-DL 1080p (Amazon) Видео: 1920x800 at 24 fps, MPEG-4 AVC, ~9469 kbps avg Аудио 1: 48 kHz, E-AC3, 3/2 (L,C,R,l,r) + LFE ch, ~384 kbps avg | Russian Аудио 2: 48 kHz, E-AC3, 3/2 (L,C,R,l,r) + LFE ch, ~640 kbps avg | Korean Субтитры: русские (Forced), французские (Forced, Full) Семпл
[+] Скриншоты
[+] MediaInfoGeneral Unique ID : 137622227647042124828565424398387983768 (0x678913B14868867EC32BE4E55C313598) Complete name : Noryang.Deadly.Sea.2023.AMZN.DUAL.1080p.WEB-DL.DDP5.1.H.264-ONLYMOVIE_KYLE.mkv Format : Matroska Format version : Version 4 File size : 11.2 GiB Duration : 2 h 32 min Overall bit rate : 10.5 Mb/s Frame rate : 24.000 FPS Movie name : Noryang.Deadly.Sea.2023.AMZN.DUAL.1080p.WEB-DL.DDP5.1.H.264-ONLYMOVIE Encoded date : 2024-05-02 09:18:08 UTC Writing application : mkvmerge v84.0 ('Sleeper') 64-bit Writing library : libebml v1.4.5 + libmatroska v1.7.1 Comment : En 1598, la guerre d'Imjin, qui a duré sept ans, touche à sa fin et les envahisseurs japonais tentent une dernière offensive sur Joseon. L'amiral Yi Sun-shin prend la tête d'une armada marine avec la Chine des Ming, dans le but d'en finir avec l'impérialisme japonais. Video ID : 1 Format : AVC Format/Info : Advanced Video Codec Format profile : High@L4 Format settings : CABAC / 4 Ref Frames Format settings, CABAC : Yes Format settings, Reference : 4 frames Codec ID : V_MPEG4/ISO/AVC Duration : 2 h 32 min Bit rate mode : Constant Bit rate : 9 469 kb/s Nominal bit rate : 10 000 kb/s Width : 1 920 pixels Height : 800 pixels Display aspect ratio : 2.40:1 Frame rate mode : Constant Frame rate : 24.000 FPS Color space : YUV Chroma subsampling : 4:2:0 Bit depth : 8 bits Scan type : Progressive Bits/(Pixel*Frame) : 0.257 Stream size : 10.1 GiB (90%) Default : Yes Forced : No Color range : Limited Color primaries : BT.709 Transfer characteristics : BT.709 Matrix coefficients : BT.709 Audio #1 ID : 2 Format : E-AC-3 Format/Info : Enhanced AC-3 Commercial name : Dolby Digital Plus Codec ID : A_EAC3 Duration : 2 h 32 min Bit rate mode : Constant Bit rate : 384 kb/s Channel(s) : 6 channels Channel layout : L R C LFE Ls Rs Sampling rate : 48.0 kHz Frame rate : 31.250 FPS (1536 SPF) Compression mode : Lossy Stream size : 419 MiB (4%) Title : Russian Language : Russian Service kind : Complete Main Default : Yes Forced : No Audio #2 ID : 3 Format : E-AC-3 Format/Info : Enhanced AC-3 Commercial name : Dolby Digital Plus Codec ID : A_EAC3 Duration : 2 h 32 min Bit rate mode : Constant Bit rate : 640 kb/s Channel(s) : 6 channels Channel layout : L R C LFE Ls Rs Sampling rate : 48.0 kHz Frame rate : 31.250 FPS (1536 SPF) Compression mode : Lossy Stream size : 700 MiB (6%) Title : Korean Language : Korean Service kind : Complete Main Default : No Forced : No Text #1 ID : 4 Format : UTF-8 Codec ID : S_TEXT/UTF8 Codec ID/Info : UTF-8 Plain Text Duration : 2 h 28 min Bit rate : 1 b/s Frame rate : 0.004 FPS Count of elements : 38 Stream size : 1.74 KiB (0%) Title : Forced Language : Russian Default : Yes Forced : No Text #2 ID : 5 Format : UTF-8 Codec ID : S_TEXT/UTF8 Codec ID/Info : UTF-8 Plain Text Duration : 2 h 28 min Bit rate : 2 b/s Frame rate : 0.008 FPS Count of elements : 74 Stream size : 2.33 KiB (0%) Title : Forced Language : French (FR) Default : No Forced : No Text #3 ID : 6 Format : UTF-8 Codec ID : S_TEXT/UTF8 Codec ID/Info : UTF-8 Plain Text Duration : 2 h 30 min Bit rate : 31 b/s Frame rate : 0.140 FPS Count of elements : 1269 Stream size : 34.5 KiB (0%) Title : Full FR Language : French (FR) Default : No Forced : No
Релиз от: by Kyle НЕ ПРОПУСТИТЕ СЦЕНУ ПОСЛЕ ФИНАЛЬНЫХ ТИТРОВ И НЕ ЗАБУДЬТЕ ВКЛЮЧИТЬ РУССКИЕ ФОРСИРОВАННЫЕ СУБТИТРЫ НА НАДПИСИ

Всего файлов в раздаче: 1 
Noryang.Deadly.Sea.2023.AMZN.DUAL.1080p.WEB-DL.DDP5.1.H.264-ONLYMOVIE_KYLE.mkv11.20 GB

Похожие раздачи по запросу - Битва
Вчера magnet Битва в проливе Норян / Noryang: jukeumui bada / Noryang: Deadly Sea (2023) BDRip от MegaPeer | D 1.46 GB ↑ 0 ↓ 0
Вчера magnet Битва в проливе Норян / Noryang: jukeumui bada / Noryang: Deadly Sea (2023) BDRip 1080p от MegaPeer | D 13.12 GB ↑ 0 ↓ 2
2024-05-20 magnet Новая Битва экстрасенсов [24х01-09] (2024) WEBRip 1080p от Files-x 25.89 GB ↑ 0 ↓ 0
2024-05-20 magnet Новая Битва экстрасенсов [24х01-09] (2024) WEBRip от Files-x 11.15 GB ↑ 0 ↓ 0
2024-05-19 magnet Новая Битва экстрасенсов [24х01-09] (2024) WEBRip 720p от Files-x 11.45 GB ↑ 0 ↓ 0
2024-05-17 magnet Битва в проливе Норян / Noryang: jukeumui bada / Noryang: Deadly Sea (2023) BDRip от New-Team | D 2.18 GB ↑ 0 ↓ 1
2024-05-14 magnet Новая Битва экстрасенсов [24х01-08] (2024) WEBRip 1080p от Files-x 22.98 GB ↑ 0 ↓ 0

Комментарии


Зарегистрируйтесь чтобы добавить комментарий
Торрент клиент
byTorrent - программа для загрузки торрент-файлов.

Скачать byTorrent.exe (1,5 МБ)

Скачать byTorrent.zip (0,6 МБ)

Поддержи torrent.by
российских рублей
(300 российских рублей это 4$)

Обратная связь rss

End game ©